Нефть / И будет кровь / There Will Be Blood (Пол Томас Андерсон / Paul Thomas Anderson) [2007, США, драма, BDRip] AVO (Гаврилов, Гранкин)

 
Автор Сообщение

TorrentFilm ®

Пол:

Стаж: 2 года

Сообщений: 7741



Награды: Нет

Торрент-статистика

Создавать темы 12-Мар-2015 00:02

[Цитировать]

Нефть / И будет кровь / There Will Be Blood Страна: США
Жанр: драма
Год выпуска: 2007
Продолжительность: 02:38:25
Перевод 1: Авторский (одноголосый закадровый) Андрей Гаврилов
Перевод 2: Авторский (одноголосый закадровый) Евгений Гранкин
Cубтитры: нет
Режиссер: Пол Томас Андерсон / Paul Thomas Anderson
В ролях: Пол Дано, Дэниэл Дэй-Льюис, Мартин Стрингер, Кевин Дж. О`Коннор, Джейкоб Стрингер, Мэттью Браден Стрингер, Киаран Хиндс, Диллон Фризье, Джозеф Массей, Бэрри Дел Шерман
Описание: Экранизация романа «Нефть» классика американской литературы Эптона Синклера. Действие книги происходит в конце 1920-х в Калифорнии и описывает взлет нефтедобывающей компании, принадлежащей амбициозному и бездушному магнату Плэйнвью.

Качество видео: BDRip спасибо Captain_Max
Формат видео: AVI
Видео кодек: XviD
Аудио кодек: AC3
Видео: 720x304 (2.37:1), 23.976 fps, XviD build 64 ~1576 kbps avg, 0.30 bit/pixel
Аудио#1: 48 kHz, AC3 Dolby Digital, 3/2 (L,C,R,l,r) + LFE ch, ~384 kbps - Гаврилов
Аудио#2: 48 kHz, AC3 Dolby Digital, 2/0 (L,R) ch, ~192 kbps - Гранкин - отдельно

Доп.инфо

За перевод Гаврилова большое спасибо пользователям форума hdtracker:
Джосс-, Xerman13 и v111o
За Гранкина спасибо Fred198 в дороге были дыры, поэтому есть вставки с перевода Сербина

MediaInfo

Полное имя : Нефть\Нефть.avi
Формат : AVI
Формат/Информация : Audio Video Interleave
Профиль формата : OpenDML
Размер файла : 2,18 Гбайт
Продолжительность : 2 ч. 38 м.
Общий поток : 1968 Кбит/сек
Программа кодирования : VirtualDubMod 1.5.10.2 (build 2540/release)
Библиотека кодирования : VirtualDubMod build 2540/release
Видео
Идентификатор : 0
Формат : MPEG-4 Visual
Профиль формата : Advanced Simple@L5
Параметр BVOP формата : 1
Параметр QPel формата : Нет
Параметр GMC формата : Без точки перехода
Параметр матрицы формата : Выборочная
Идентификатор кодека : XVID
Идентификатор кодека/Подсказка : XviD
Продолжительность : 2 ч. 38 м.
Битрейт : 1572 Кбит/сек
Ширина : 720 пикселей
Высота : 304 пикселя
Соотношение сторон : 2,35:1
Частота кадров : 23,976 кадра/сек
Цветовое пространство : YUV
Субдискретизация насыщенности : 4:2:0
Битовая глубина : 8 бит
Тип развёртки : Прогрессивная
Метод сжатия : С потерями
Бит/(Пиксели*Кадры) : 0.300
Размер потока : 1,74 Гбайт (80%)
Библиотека кодирования : XviD 64
Аудио
Идентификатор : 1
Формат : AC-3
Формат/Информация : Audio Coding 3
Расширение режима : CM (complete main)
Параметр Endianness формата : Big
Идентификатор кодека : 2000
Продолжительность : 2 ч. 38 м.
Вид битрейта : Постоянный
Битрейт : 384 Кбит/сек
Каналы : 6 каналов
Расположение каналов : Front: L C R, Side: L R, LFE
Частота : 48,0 КГц
Битовая глубина : 16 бит
Метод сжатия : С потерями
Размер потока : 435 Мбайт (20%)
Выравнивание : Разделение по промежуткам
Продолжительность промежутка : 42 мс. (1,00 видеокадр)
Время предзагрузки промежутка : 500 мс.
Аудио
Идентификатор : 2
Формат : AC-3
Формат/Информация : Audio Coding 3
Расширение режима : CM (complete main)
Параметр Endianness формата : Big
Идентификатор кодека : 2000
Продолжительность : 2 ч. 38 м.
Вид битрейта : Постоянный
Битрейт : 192 Кбит/сек
Каналы : 2 канала
Расположение каналов : Front: L R
Частота : 48,0 КГц
Битовая глубина : 16 бит
Метод сжатия : С потерями
Размер потока : 218 Мбайт (100%)

Скриншоты

[Профиль] [ЛС]

Создавать темы 06-Авг-2015 22:42 (спустя 4 месяца 25 дней)

Топик был перенесен из форума Фильмы до 2014 года в форум Фильмы до 2012 года
sergej644
 
Показать сообщения:    

Текущее время: Сегодня 18:17

Часовой пояс: GMT



Вы не можете начинать темы
Вы не можете отвечать на сообщения
Вы не можете редактировать свои сообщения
Вы не можете удалять свои сообщения
Вы не можете голосовать в опросах
Вы не можете прикреплять файлы к сообщениям
Вы не можете скачивать файлы