Неуправляемый / Rudderless (2014) WEB-DL 720p

 
Автор Сообщение

sergej644 ®

Пол:

Стаж: 4 года 11 месяцев

Сообщений: 6045

Откуда: Soviet Union



Награды: Нет

Торрент-статистика

Создавать темы 06-Ноя-2014 09:08

[Цитировать]

Информация о фильме
Название: Неуправляемый
Оригинальное название: Rudderless
Год выхода: 2014
Жанр: Драма, музыка
Режиссер: Уильям Х. Мэйси / William H. Macy
В ролях: Антон Ельчин, Билли Крадап, Селена Гомес, Лоренс Фишбёрн, Кейт Микуччи, Джейми Чунг, Уильям Х. Мэйси, Фелисити Хаффмен, Майлс Хейзер, Зои Грэм
Описание: Отец, потерявший своего сына, однажды натыкается на коробку записей и текстов, записанных сыном. Потрясенный открытием никому неизвестного таланта, он создает музыкальную группу, в надежде обрести катарсис.

Производство: США / Amberdale Productions, Bron Studios, Tee Rob Pictures, Toy Gun Films, Unified Pictures
Продолжительность: 01:45:16
Перевод: Профессиональный (полное дублирование) | Чистый звук (line)
Навигация по главам: Есть
Файл
Качество: WEB-DL 720p
Формат: MKV
Видео: MPEG-4 AVC/H.264, 1280x718 (16:9), 23.976 fps, 3959 kbps, 0.180 bit/pixel
Аудио: 48 kHz, AC3 Dolby Digital, 2 ch.(stereo), 192 kbps
Семпл

MediaInfo

Полное имя : Neuprovlyaemyj.2014.WEB-DL.720p
Формат : Matroska
Версия формата : Version 4 / Version 2
Размер файла : 3,12 Гбайт
Продолжительность : 1 ч. 45 м.
Общий поток : 4239 Кбит/сек
Название фильма : Rudderless (2014) WEB-DLRip 720p
Дата кодирования : UTC 2014-11-05 15:49:24
Программа кодирования : mkvmerge v7.3.0 ('Nouages') 64bit built on Oct 22 2014 18:53:34
Библиотека кодирования : libebml v1.3.0 + libmatroska v1.4.1
Видео
Идентификатор : 1
Формат : AVC
Формат/Информация : Advanced Video Codec
Профиль формата : High@L3.1
Параметр CABAC формата : Нет
Параметр ReFrames формата : 2 кадра
Идентификатор кодека : V_MPEG4/ISO/AVC
Продолжительность : 1 ч. 45 м.
Битрейт : 3963 Кбит/сек
Ширина : 1280 пикселей
Высота : 718 пикселей
Соотношение сторон : 16:9
Режим частоты кадров : Постоянный
Частота кадров : 23,976 кадра/сек
Цветовое пространство : YUV
Субдискретизация насыщенности : 4:2:0
Битовая глубина : 8 бит
Тип развёртки : Прогрессивная
Бит/(Пиксели*Кадры) : 0.180
Размер потока : 2,91 Гбайт (93%)
Заголовок : H.264, 1280x718 (16:9), 23.976 fps, 3959 kbps, 0.180 Bits/(Pixel*Frame)
Язык : English
Default : Да
Forced : Нет
Основные цвета : BT.709
Характеристики трансфера : BT.709
Коэффициенты матрицы : BT.709
Аудио
Идентификатор : 2
Формат : AC-3
Формат/Информация : Audio Coding 3
Расширение режима : CM (complete main)
Параметр Endianness формата : Big
Идентификатор кодека : A_AC3
Продолжительность : 1 ч. 45 м.
Вид битрейта : Постоянный
Битрейт : 192 Кбит/сек
Каналы : 2 канала
Расположение каналов : Front: L R
Частота : 48,0 КГц
Битовая глубина : 16 бит
Метод сжатия : С потерями
Размер потока : 145 Мбайт (5%)
Заголовок : DUB (line) | AC3 Dolby Digital 2.0, 48 kHz, 192 kbps
Язык : Russian
Default : Да
Forced : Нет
Меню
00:00:00.000 : en:Chapter 1
00:09:12.000 : en:Chapter 2
00:13:55.000 : en:Chapter 3
00:18:16.000 : en:Chapter 4
00:24:27.000 : en:Chapter 5
00:31:30.000 : en:Chapter 6
00:37:06.000 : en:Chapter 7
00:43:03.000 : en:Chapter 8
00:50:42.000 : en:Chapter 9
00:57:09.000 : en:Chapter 10
01:05:19.000 : en:Chapter 11
01:11:33.000 : en:Chapter 12
01:18:53.000 : en:Chapter 13
01:27:29.000 : en:Chapter 14
01:39:17.000 : en:Chapter 15

Скриншоты

[Профиль] [ЛС]
Показать сообщения:    

Текущее время: Сегодня 02:17

Часовой пояс: GMT



Вы не можете начинать темы
Вы не можете отвечать на сообщения
Вы не можете редактировать свои сообщения
Вы не можете удалять свои сообщения
Вы не можете голосовать в опросах
Вы не можете прикреплять файлы к сообщениям
Вы не можете скачивать файлы