Неуправляемый / Unstoppable (Тони Скотт / Tony Scott) [2010, США, Триллер, BDRip] Dub

 
Автор Сообщение

TorrentFilm ®

Пол:

Стаж: 2 года

Сообщений: 7741



Награды: Нет

Торрент-статистика

Создавать темы 24-Авг-2015 00:10

[Цитировать]

Неуправляемый / Unstoppable
«Миллион тонн стали. Сто тысяч жизней на кону. Сто минут до катастрофы»
- Год выпуска: 2010
Выпущено: США / 20th Century Fox Film Corporation
Жанр: триллер
Продолжительность: 01:38:30
Перевод: Профессиональный (полное дублирование) BD EUR
Cубтитры: нет-Режиссер:
Тони Скотт / Tony Scott-В ролях:
Дензел Вашингтон (Frank), Крис Пайн (Will), Розарио Доусон (Connie), Итан Сапли (Dewey), Кевин Данн (Galvin), Кевин Корригэн (Inspector Werner), Кевин Чэпмен (Bunny), Лью Темпл (Ned), ТиДжей Миллер (Gilleece), Джесси Шрэм (Darcy), Дэвид Уоршофски (Judd Stewart)-Описание:
Потерявший управление огромный беспилотный локомотив с токсичным грузом несется, сметая все на своем пути. Но главная опасность состоит в том, что если он сойдет с рельсов на очередном вираже, химической катастрофы не избежать. Все силы задействованы, все попытки остановить монстра тщетны, планов на спасение не осталось. Впрочем…-Релиз групп | | IMDB | КиноПоиск | Сэмпл |-Качество: BDRip [Blu-ray Disc]
Формат: AVI
Видео: 720x304 (2.37:1), 23.976 fps, XviD build 73 ~1728 kbps avg, 0.33 bit/pixel
Аудио: 48 kHz, AC3 Dolby Digital, 3/2 (L,C,R,l,r) + LFE ch, ~384.00 kbps avg
-

Скриншоты

MediaInfo

General
Complete name                            : D:\Neupravlyaemyi_2010_BDRip_by_Dalemake.avi
Format                                   : AVI
Format/Info                              : Audio Video Interleave
File size                                : 1.46 GiB
Duration                                 : 1h 38mn
Overall bit rate                         : 2 122 Kbps
Writing application                      : VirtualDubMod 1.5.10.3 | www.virtualdub-fr.org || (build 2550/release)
Writing library                          : VirtualDubMod build 2550/release
Video
ID                                       : 0
Format                                   : MPEG-4 Visual
Format profile                           : Advanced Simple@L5
Format settings, BVOP                    : 1
Format settings, QPel                    : No
Format settings, GMC                     : No warppoints
Format settings, Matrix                  : Custom
Codec ID                                 : XVID
Codec ID/Hint                            : XviD
Duration                                 : 1h 38mn
Bit rate                                 : 1 729 Kbps
Width                                    : 720 pixels
Height                                   : 304 pixels
Display aspect ratio                     : 2.35:1
Frame rate                               : 23.976 fps
Color space                              : YUV
Chroma subsampling                       : 4:2:0
Bit depth                                : 8 bits
Scan type                                : Progressive
Compression mode                         : Lossy
Bits/(Pixel*Frame)                       : 0.329
Stream size                              : 1.19 GiB (81%)
Writing library                          : XviD 73
Audio
ID                                       : 1
Format                                   : AC-3
Format/Info                              : Audio Coding 3
Mode extension                           : CM (complete main)
Format settings, Endianness              : Big
Codec ID                                 : 2000
Duration                                 : 1h 38mn
Bit rate mode                            : Constant
Bit rate                                 : 384 Kbps
Channel(s)                               : 6 channels
Channel positions                        : Front: L C R, Side: L R, LFE
Sampling rate                            : 48.0 KHz
Bit depth                                : 16 bits
Compression mode                         : Lossy
Stream size                              : 271 MiB (18%)
Alignment                                : Split accross interleaves
Interleave, duration                     : 42 ms (1.00 video frame)
Interleave, preload duration             : 500 ms
-
[Профиль] [ЛС]

Создавать темы 12-Июн-2016 07:53 (спустя 9 месяцев 19 дней)

Топик был перенесен из форума Фильмы 2011 года в форум Фильмы 2010 года
Russian Mafia
 
Показать сообщения:    

Текущее время: Сегодня 09:05

Часовой пояс: GMT



Вы не можете начинать темы
Вы не можете отвечать на сообщения
Вы не можете редактировать свои сообщения
Вы не можете удалять свои сообщения
Вы не можете голосовать в опросах
Вы не можете прикреплять файлы к сообщениям
Вы не можете скачивать файлы