Неуправляемый / Unstoppable (Тони Скотт / Tony Scott) [2010, США, боевик, триллер, драма, HDTVRip-AVC] [Open Matte] DUB (Rus, Ukr) + MVO (Первый канал) + AVO (Гаврилов) + Original + Sub Rus Ukr Eng

 
Автор Сообщение

TorrentFilm ®

Пол:

Стаж: 1 год 11 месяцев

Сообщений: 7741



Награды: Нет

Торрент-статистика

Создавать темы 22-Мар-2015 00:00

[Цитировать]

Неуправляемый / Unstoppable / Open Matte
Страна: США
Жанр: боевик, триллер, драма
Год выпуска: 2010
Продолжительность: 01:34:31
Перевод: Профессиональный (дублированный) Русский, Украинский
Перевод 2: Профессиональный (многоголосый закадровый) Первый канал
Перевод 3: Профессиональный (одноголосый) А.Гаврилов
Cубтитры: русские, украинские, английские
Режиссер: Тони Скотт / Tony Scott
В ролях: Дензел Вашингтон, Крис Пайн, Розарио Доусон, Этан Сапли, Кевин Данн, Кевин Корригэн, Кевин Чэпмен, Лью Темпл, ТиДжей Миллер, Джесси Шрэм
Описание: Потерявший управление огромный беспилотный локомотив с токсичным грузом несется, сметая все на своем пути. Но главная опасность состоит в том, что если он сойдет с рельсов на очередном вираже, химической катастрофы не избежать. Все силы задействованы, все попытки остановить монстра тщетны, планов на спасение не осталось. Впрочем...
Доп. информация: Рип с данной раздачи. Подогнал под дублированную дорожку с blu-ray. Все звуковые дорожки и субтитры взял из данной раздачи
Качество видео: HDTVRip-AVC
Формат видео: MKV
Видео: HDTVRip (AVC) / MPEG-4 AVC/H.264 / 2331 kbps / 1024x576
Аудио 1: DUB (Rus) / AC3 / 6 ch / 448 kbps / 48 kHz
Аудио 2: Original (Eng) / AC3 / 6 ch / 448 kbps / 48 kHz
Аудио 3: MVO Первый канал (Rus) / AC3 / 2 ch / 192 kbps / 48 kHz - отдельно
Аудио 4: AVO Гаврилов (Rus) / AC3 / 6 ch / 448 kbps / 48 kHz - отдельно
Аудио 5: DUB (Ukr) / AC3 / 6 ch / 448 kbps / 48 kHz - отдельно
Формат субтитров: softsub (SRT)
Доп. информация о субтитрах: Русские (forced, full), Украинские (forced, full), Английские (full)

MediaInfo

General
Unique ID : 197080975263343483307814293386262525361 (0x94446A48C4F08EA4A98733D8D2ECB5B1)
Complete name : J:\Torrents\Neupravlyaemiy.2010.Open.Matte.HDTVRip-AVC\Neupravlyaemiy.2010.Open.Matte.HDTVRip-AVC.mkv
Format : Matroska
Format version : Version 2
File size : 2.18 GiB
Duration : 1h 34mn
Overall bit rate : 3 294 Kbps
Movie name : Неуправляемый / Unstoppable (2010) [Open Matte]
Encoded date : UTC 2015-03-20 23:24:32
Writing application : mkvmerge v5.5.0 ('Healer') built on Apr 24 2012 23:47:03
Writing library : libebml v1.2.3 + libmatroska v1.3.0
Attachment : Yes
Video
ID : 1
Format : AVC
Format/Info : Advanced Video Codec
Format profile : High@L3.0
Format settings, CABAC : Yes
Format settings, ReFrames : 3 frames
Codec ID : V_MPEG4/ISO/AVC
Duration : 1h 34mn
Bit rate : 2 332 Kbps
Nominal bit rate : 2 500 Kbps
Width : 720 pixels
Height : 576 pixels
Display aspect ratio : 16:9
Frame rate mode : Variable
Frame rate : 23.976 fps
Standard : PAL
Color space : YUV
Chroma subsampling : 4:2:0
Bit depth : 8 bits
Scan type : Progressive
Bits/(Pixel*Frame) : 0.235
Stream size : 1.54 GiB (71%)
Title : HDTVRip (AVC) / MPEG-4 AVC/H.264 / 2331 kbps / 1024x576
Writing library : x264 core 112
Encoding settings : cabac=1 / ref=3 / deblock=1:0:0 / analyse=0x3:0x113 / me=hex / subme=7 / psy=1 / psy_rd=1.00:0.00 / mixed_ref=1 / me_range=16 / chroma_me=1 / trellis=1 / 8x8dct=1 / cqm=0 / deadzone=21,11 / fast_pskip=1 / chroma_qp_offset=-2 / threads=1 / sliced_threads=0 / nr=0 / decimate=1 / interlaced=0 / constrained_intra=0 / bframes=3 / b_pyramid=0 / b_adapt=1 / b_bias=0 / direct=1 / weightb=1 / open_gop=0 / weightp=2 / keyint=250 / keyint_min=25 / scenecut=40 / intra_refresh=0 / rc_lookahead=40 / rc=abr / mbtree=1 / bitrate=2500 / ratetol=1.0 / qcomp=0.60 / qpmin=10 / qpmax=51 / qpstep=4 / ip_ratio=1.41 / aq=1:1.00
Language : English
Default : Yes
Forced : No
Audio #1
ID : 2
Format : AC-3
Format/Info : Audio Coding 3
Mode extension : CM (complete main)
Format settings, Endianness : Big
Codec ID : A_AC3
Duration : 1h 34mn
Bit rate mode : Constant
Bit rate : 448 Kbps
Channel(s) : 6 channels
Channel positions : Front: L C R, Side: L R, LFE
Sampling rate : 48.0 KHz
Bit depth : 16 bits
Compression mode : Lossy
Delay relative to video : -2s 250ms
Stream size : 303 MiB (14%)
Title : DUB (Rus) / AC3 / 6 ch / 448 kbps / 48 kHz
Language : Russian
Default : Yes
Forced : No
Audio #2
ID : 3
Format : AC-3
Format/Info : Audio Coding 3
Mode extension : CM (complete main)
Format settings, Endianness : Big
Codec ID : A_AC3
Duration : 1h 34mn
Bit rate mode : Constant
Bit rate : 448 Kbps
Channel(s) : 6 channels
Channel positions : Front: L C R, Side: L R, LFE
Sampling rate : 48.0 KHz
Bit depth : 16 bits
Compression mode : Lossy
Delay relative to video : -2s 250ms
Stream size : 303 MiB (14%)
Title : Original (Eng) / AC3 / 6 ch / 448 kbps / 48 kHz
Language : English
Default : No
Forced : No
Text #1
ID : 4
Format : UTF-8
Codec ID : S_TEXT/UTF8
Codec ID/Info : UTF-8 Plain Text
Title : Forced (Rus) / S_TEXT/UTF8
Language : Russian
Default : Yes
Forced : Yes
Text #2
ID : 5
Format : UTF-8
Codec ID : S_TEXT/UTF8
Codec ID/Info : UTF-8 Plain Text
Title : Full (Rus) / S_TEXT/UTF8
Language : Russian
Default : No
Forced : No
Text #3
ID : 6
Format : UTF-8
Codec ID : S_TEXT/UTF8
Codec ID/Info : UTF-8 Plain Text
Title : Forced (Ukr) / S_TEXT/UTF8
Language : Ukrainian
Default : No
Forced : No
Text #4
ID : 7
Format : UTF-8
Codec ID : S_TEXT/UTF8
Codec ID/Info : UTF-8 Plain Text
Title : Full (Ukr) / S_TEXT/UTF8
Language : Ukrainian
Default : No
Forced : No
Text #5
ID : 8
Format : UTF-8
Codec ID : S_TEXT/UTF8
Codec ID/Info : UTF-8 Plain Text
Title : Full (Eng) / S_TEXT/UTF8
Language : English
Default : No
Forced : No
Menu
00:00:00.000 : en:Chapter 1
00:04:45.618 : en:Chapter 2
00:09:41.455 : en:Chapter 3
00:14:37.668 : en:Chapter 4
00:18:10.964 : en:Chapter 5
00:20:58.840 : en:Chapter 6
00:22:58.919 : en:Chapter 7
00:25:31.363 : en:Chapter 8
00:30:16.523 : en:Chapter 9
00:33:58.411 : en:Chapter 10
00:37:38.506 : en:Chapter 11
00:39:59.105 : en:Chapter 12
00:41:28.569 : en:Chapter 13
00:46:36.919 : en:Chapter 14
00:49:18.705 : en:Chapter 15
00:52:24.933 : en:Chapter 16
00:54:13.583 : en:Chapter 17
00:58:44.145 : en:Chapter 18
01:01:02.742 : en:Chapter 19
01:03:14.290 : en:Chapter 20
01:07:20.786 : en:Chapter 21
01:10:00.154 : en:Chapter 22
01:15:11.465 : en:Chapter 23
01:18:24.533 : en:Chapter 24
01:21:13.410 : en:Chapter 25
01:24:53.505 : en:Chapter 26
01:30:31.551 : en:Chapter 27
01:32:58.864 : en:Chapter 28

Скриншот c названием фильма

Скриншоты


-

Обновление 21 марта 2015

Заменил DVBRip-AVC на HDTVRip-AVC.
Так же добавил:
аудиодорожки - AVO Гаврилов (Rus), DUB (Ukr), Original (Eng)
субтитры - Русские (full), Украинские (forced, full), Английские (full)
[Профиль] [ЛС]

Создавать темы 06-Авг-2015 22:40 (спустя 4 месяца 15 дней)

Топик был перенесен из форума Фильмы до 2014 года в форум Фильмы до 2012 года
sergej644
 

Создавать темы 12-Июн-2016 07:54 (спустя 1 год 2 месяца)

Топик был перенесен из форума Фильмы 2011 года в форум Фильмы 2010 года
Russian Mafia
 
Показать сообщения:    

Текущее время: Сегодня 05:01

Часовой пояс: GMT



Вы не можете начинать темы
Вы не можете отвечать на сообщения
Вы не можете редактировать свои сообщения
Вы не можете удалять свои сообщения
Вы не можете голосовать в опросах
Вы не можете прикреплять файлы к сообщениям
Вы не можете скачивать файлы