Неудержимый / Bullet to the Head (2012) BDRip 1080p | US Transfer

 
Автор Сообщение

sergej644 ®

Пол:

Стаж: 5 лет 8 месяцев

Сообщений: 6149

Откуда: Soviet Union



Награды: 9 (Подробнее)

Mega Seeder 1 (Количество: 1) Mega Seeder 5 (Количество: 1) Top Seeder 4 (Количество: 1)
Торрент-статистика

Создавать темы 22-Янв-2015 00:03

[Цитировать]

Информация о фильме
Название: Неудержимый
Оригинальное название: Bullet to the Head
Год выхода: 2012
Жанр: боевик, триллер, криминал
Режиссер: Уолтер Хилл
В ролях: Сильвестр Сталлоне, Санг Кенг, Сара Шахи, Адевале Акинойе-Агбаже, Джейсон Момоа, Кристиан Слэйтер, Джон Седа, Холт МакКэллани, Брайан Ван Холт, Вероника Розати
О фильме:
Киллер из Нового Орлеана объединяется с молодым полицейским из Нью-Йорка, расследуя дело, которое выводит их с мрачных задворок Нового Орлеана в светлые коридоры правительственных зданий в Вашингтоне. Необычный дуэт формируется в результате двух жестоких убийств. Герои убирают всех, кто стоит у них на пути, и готовы пожертвовать всем, чтобы отомстить.

Выпущено: США
Студия: Warner Bros.
Продолжительность: 01:31:33
Перевод: Дублированный + Авторский (Юрий Сербин) + Оригинал
Файл
Кодек: x264
Качество: BDRip (источник: BD-Remux)
Видео: 1920x1036 (1,85:1), 23.976 fps, 10213 kbps
Аудио #1: AC-3, 6 ch, 640 kbps (Rus) Дубляж
Аудио #2: AC-3, 6 ch, 640 kbps (Rus) Юрий Сербин
Аудио #3: AC-3, 6 ch, 640 kbps (Eng) Оригинал
Субтитры: Русские, Английские
Скачать: семпл

Скриншоты

MI

Общее
Уникальный идентификатор : 243587484141310453300038663427600619993 (0xB7413E33D7F41860AD384A25943F19D9)
Полное имя : E:Bullet.To.The.Head.2012.BDRip.1080p.Rus.Eng.mkv
Формат : Matroska
Версия формата : Version 4 / Version 2
Размер файла : 7,76 Гбайт
Продолжительность : 1 ч. 31 м.
Общий поток : 12,1 Мбит/сек
Название фильма : Неудержимый / Bullet to the Head (2012)
Дата кодирования : UTC 2013-06-29 10:10:23
Программа кодирования : mkvmerge v6.3.0 ('You can't stop me!') built on Jun 28 2013 20:09:41
Библиотека кодирования : libebml v1.3.0 + libmatroska v1.4.0
Видео
Идентификатор : 1
Формат : AVC
Формат/Информация : Advanced Video Codec
Профиль формата : High@L4.1
Параметр CABAC формата : Да
Параметр ReFrames формата : 4 кадра
Идентификатор кодека : V_MPEG4/ISO/AVC
Продолжительность : 1 ч. 31 м.
Битрейт : 10,2 Мбит/сек
Ширина : 1920 пикселей
Высота : 1036 пикселей
Соотношение сторон : 1,85:1
Режим частоты кадров : Постоянный
Частота кадров : 23,976 кадра/сек
Цветовое пространство : YUV
Субдискретизация насыщенности : 4:2:0
Битовая глубина : 8 бит
Тип развёртки : Прогрессивная
Бит/(Пиксели*Кадры) : 0.214
Размер потока : 6,38 Гбайт (82%)
Заголовок : Release by N1NT3NDO
Библиотека кодирования : x264 core 130 r2273 b3065e6
Настройки программы : cabac=1 / ref=4 / deblock=1:-3:-3 / analyse=0x3:0x113 / me=umh / subme=10 / psy=1 / psy_rd=1.00:0.00 / mixed_ref=1 / me_range=32 / chroma_me=1 / trellis=2 / 8x8dct=1 / cqm=0 / deadzone=21,11 / fast_pskip=0 / chroma_qp_offset=-2 / threads=12 / lookahead_threads=1 / sliced_threads=0 / nr=0 / decimate=0 / interlaced=0 / bluray_compat=0 / constrained_intra=0 / bframes=5 / b_pyramid=2 / b_adapt=2 / b_bias=0 / direct=2 / weightb=1 / open_gop=0 / weightp=2 / keyint=240 / keyint_min=23 / scenecut=40 / intra_refresh=0 / rc_lookahead=80 / rc=2pass / mbtree=1 / bitrate=10213 / ratetol=1.0 / qcomp=0.60 / qpmin=0 / qpmax=69 / qpstep=4 / cplxblur=20.0 / qblur=0.5 / ip_ratio=1.40 / aq=1:0.70
Язык : English
Default : Да
Forced : Нет
Аудио #1
Идентификатор : 2
Формат : AC-3
Формат/Информация : Audio Coding 3
Расширение режима : CM (complete main)
Параметр Endianness формата : Big
Идентификатор кодека : A_AC3
Продолжительность : 1 ч. 31 м.
Вид битрейта : Постоянный
Битрейт : 640 Кбит/сек
Каналы : 6 каналов
Расположение каналов : Front: L C R, Side: L R, LFE
Частота : 48,0 КГц
Битовая глубина : 16 бит
Метод сжатия : С потерями
Размер потока : 419 Мбайт (5%)
Заголовок : Rus
Язык : Russian
Default : Да
Forced : Нет
Аудио #2
Идентификатор : 3
Формат : AC-3
Формат/Информация : Audio Coding 3
Расширение режима : CM (complete main)
Параметр Endianness формата : Big
Идентификатор кодека : A_AC3
Продолжительность : 1 ч. 31 м.
Вид битрейта : Постоянный
Битрейт : 640 Кбит/сек
Каналы : 6 каналов
Расположение каналов : Front: L C R, Side: L R, LFE
Частота : 48,0 КГц
Битовая глубина : 16 бит
Метод сжатия : С потерями
Размер потока : 419 Мбайт (5%)
Заголовок : Rus (Сербин)
Язык : Russian
Default : Нет
Forced : Нет
Аудио #3
Идентификатор : 4
Формат : AC-3
Формат/Информация : Audio Coding 3
Расширение режима : CM (complete main)
Параметр Endianness формата : Big
Идентификатор кодека : A_AC3
Продолжительность : 1 ч. 31 м.
Вид битрейта : Постоянный
Битрейт : 640 Кбит/сек
Каналы : 6 каналов
Расположение каналов : Front: L C R, Side: L R, LFE
Частота : 48,0 КГц
Битовая глубина : 16 бит
Метод сжатия : С потерями
Размер потока : 419 Мбайт (5%)
Заголовок : Eng
Язык : English
Default : Нет
Forced : Нет
Текст #1
Идентификатор : 5
Формат : UTF-8
Идентификатор кодека : S_TEXT/UTF8
Идентификатор кодека/Информация : UTF-8 Plain Text
Заголовок : Rus
Язык : Russian
Default : Нет
Forced : Нет
Текст #2
Идентификатор : 6
Формат : UTF-8
Идентификатор кодека : S_TEXT/UTF8
Идентификатор кодека/Информация : UTF-8 Plain Text
Заголовок : Eng
Язык : English
Default : Нет
Forced : Нет
Меню
00:00:00.000 : :Chapter 01
00:06:32.433 : :Chapter 02
00:07:43.378 : :Chapter 03
00:11:30.439 : :Chapter 04
00:16:25.109 : :Chapter 05
00:21:54.354 : :Chapter 06
00:27:53.545 : :Chapter 07
00:30:30.078 : :Chapter 08
00:34:59.931 : :Chapter 09
00:40:39.311 : :Chapter 10
00:47:19.294 : :Chapter 11
00:56:18.375 : :Chapter 12
01:00:55.109 : :Chapter 13
01:03:45.446 : :Chapter 14
01:07:01.183 : :Chapter 15
01:09:18.571 : :Chapter 16
01:13:50.968 : :Chapter 17
01:17:32.356 : :Chapter 18
01:23:24.332 : :Chapter 19
01:26:23.011 : :Chapter 20

x264

x264 [info]: frame I:786 Avg QP:17.67 size:167076
x264 [info]: frame P:34538 Avg QP:20.57 size: 72834
x264 [info]: frame B:96388 Avg QP:21.72 size: 45267
[Профиль] [ЛС]
Показать сообщения:    

Текущее время: Сегодня 22:30

Часовой пояс: GMT



Вы не можете начинать темы
Вы не можете отвечать на сообщения
Вы не можете редактировать свои сообщения
Вы не можете удалять свои сообщения
Вы не можете голосовать в опросах
Вы не можете прикреплять файлы к сообщениям
Вы не можете скачивать файлы