Неудержимые 3 / The Expendables 3 (Патрик Хьюз / Patrick Hughes) [2014, США, Боевик, триллер, приключения, BDRip] [Расширенная версия / Unrated Cut] Dub

 
Автор Сообщение

TorrentFilm ®

Пол:

Стаж: 1 год 11 месяцев

Сообщений: 7741



Награды: Нет

Торрент-статистика

Создавать темы 21-Дек-2014 02:00

[Цитировать]

Неудержимые 3 / The Expendables 3
«Сборная Голливуда снова в игре»
- Год выпуска: 2014
Выпущено: США, Франция / Nu Image / Millennium Films
Жанр: боевик, триллер, приключения
Продолжительность: 02:11:31
Перевод: Профессиональный (полное дублирование) BD RUS + вставки VO Есарева на эпизоды Расширенной версии
Cубтитры: нет-Режиссер:
Патрик Хьюз / Patrick Hughes-В ролях:
Сильвестр Сталлоне (Barney Ross), Джейсон Стэйтем (Lee Christmas), Харрисон Форд (Drummer), Арнольд Шварценеггер (Trench), Мэл Гибсон (Stonebanks), Уэсли Снайпс (Doc), Дольф Лундгрен (Gunner Jensen), Рэнди Кутюр (Toll Road), Терри Крюс (Caesar), Антонио Бандерас (Galgo), Джет Ли (Yin Yang), Келси Грэммер (Bonaparte), Келлан Латс (Smilee), Ронда Роуси (Luna), Роберт Дави (Goran Vata)-Описание:
Барни, Кристмас и остальные члены команды сходятся лицом к лицу с Конрадом Стоунбэнксом, многие годы назад основавшем вместе с Барни команду «Неудержимых». Впоследствии Стоунбэнкс становится безжалостным торговцем оружием и тем самым превращается в человека, которого Барни было поручено убить. Или по крайней мере он сам так считал. Теперь Стоунбэнкс, один раз уже сумевший обмануть смерть, поставил себе цель покончить с «Неудержимыми» — но у Барни на этот счет свои планы. Барни решает, что в его борьбе «свежий» подход можно противопоставить старым методам, и пополняет ряды людьми, которые моложе, быстрее и технически более подкованные. Так у членов команды «Неудержимых» начинается новая эра. Последняя миссия превращается в столкновение между представителями классической старой школы и экспертами в высоких технологиях.-Релиз групп | | IMDB | КиноПоиск | Сэмпл |-Качество: BDRip [BDRemux | 1080p | HDCLUB]
Формат: AVI
Видео: 720x304 (2.37:1), 23.976 fps, XviD build 73 ~1386 kbps avg, 0.26 bit/pixel
Аудио: 48 kHz, AC3 Dolby Digital, 2/0 (L,R) ch, ~192.00 kbps avg
-

Скриншоты

MediaInfo

General
Complete name                            : D:\Neuderzhimye_3_2014_BDRip_[UNRATED]_by_Dalemake.avi
Format                                   : AVI
Format/Info                              : Audio Video Interleave
File size                                : 1.46 GiB
Duration                                 : 2h 11mn
Overall bit rate                         : 1 588 Kbps
Writing application                      : VirtualDubMod 1.5.10.3 | www.virtualdub-fr.org || (build 2550/release)
Writing library                          : VirtualDubMod build 2550/release
Video
ID                                       : 0
Format                                   : MPEG-4 Visual
Format profile                           : Advanced Simple@L5
Format settings, BVOP                    : 1
Format settings, QPel                    : No
Format settings, GMC                     : No warppoints
Format settings, Matrix                  : Custom
Codec ID                                 : XVID
Codec ID/Hint                            : XviD
Duration                                 : 2h 11mn
Bit rate                                 : 1 386 Kbps
Width                                    : 720 pixels
Height                                   : 304 pixels
Display aspect ratio                     : 2.35:1
Frame rate                               : 23.976 fps
Color space                              : YUV
Chroma subsampling                       : 4:2:0
Bit depth                                : 8 bits
Scan type                                : Progressive
Compression mode                         : Lossy
Bits/(Pixel*Frame)                       : 0.264
Stream size                              : 1.27 GiB (87%)
Writing library                          : XviD 73
Audio
ID                                       : 1
Format                                   : AC-3
Format/Info                              : Audio Coding 3
Mode extension                           : CM (complete main)
Format settings, Endianness              : Big
Codec ID                                 : 2000
Duration                                 : 2h 11mn
Bit rate mode                            : Constant
Bit rate                                 : 192 Kbps
Channel(s)                               : 2 channels
Channel positions                        : Front: L R
Sampling rate                            : 48.0 KHz
Bit depth                                : 16 bits
Compression mode                         : Lossy
Stream size                              : 181 MiB (12%)
Alignment                                : Split accross interleaves
Interleave, duration                     : 42 ms (1.00 video frame)
Interleave, preload duration             : 500 ms

-
* Дубляж с BD Rus театральной версии. В непереведенных эпизодах вставлена озвучка Д.Есарева.
* За доозвучку недостающих сцен расширенной версии спасибо непосредственно Д. Есареву.
-
[Профиль] [ЛС]
Кто просматривает тему:

Форум Тема Автор Размер
Фильмы (HD Rips | 720p, 1080p) Неудержимые 2 / The Expendables 2 (2012) BDRip 720p sergej644 3.69 GB
Фильмы (HD Rips | 720p, 1080p) Неудержимые 3 / The Expendables 3 (2014) BDRip 720p от HELLYWOOD | Театральная версия | Лицензия Russian Mafia 4.4 GB
Фильмы (HD Rips | 720p, 1080p) Неудержимые 3 / The Expendables 3 (2014) BDRip [1080p] sergej644 11.95 GB
Фильмы 2014 года Неудержимые 3 / The Expendables 3 (2014) BDRip от HQCLUB | Theatrical Cut | Лицензия sergej644 2.18 GB
Фильмы 2014 года Неудержимые 3 / The Expendables 3 (2014) HDRip | D | Лицензия | Театральная версия BOSS 1.46 GB
Фильмы 2014 года Неудержимые 3 / The Expendables 3 (2014) HDRip-AVC от ExKinoRay | Лицензия sergej644 2.22 GB
Фильмы 2014 года Неудержимые 3 / The Expendables 3 (Патрик Хьюз / Patrick Hughes) [2014, США, Франция, боевик, триллер, приключения, BDRip-AVC] [UNRATED] Dub + Sub (Rus) TorrentFilm 747 MB
Фильмы 2014 года Неудержимые 3 / The Expendables 3 (Патрик Хьюз / Patrick Hughes) [2014, США, Франция, боевик, триллер, приключения, BDRip] [Theatrical Cut] Dub + Original Eng + Subs TorrentFilm 2.18 GB
Показать сообщения:    

Текущее время: Сегодня 20:10

Часовой пояс: GMT



Вы не можете начинать темы
Вы не можете отвечать на сообщения
Вы не можете редактировать свои сообщения
Вы не можете удалять свои сообщения
Вы не можете голосовать в опросах
Вы не можете прикреплять файлы к сообщениям
Вы не можете скачивать файлы