Неудержимые: Дилогия / The Expendables (2010-2012) BDRip 1080p от NoLimits-Team

 
Автор Сообщение

Zithylord ®

Пол:

Стаж: 5 лет 10 месяцев

Сообщений: 114



Награды: 2 (Подробнее)

Mega Seeder 2 (Количество: 1) Mega Seeder 1 (Количество: 1)
Торрент-статистика

Создавать темы 14-Авг-2014 17:28

[Цитировать]

Неудержимые / The Expendables (2010) BDRip 1080p от NoLimits-Team


Информация о фильме
Название: Неудержимые
Оригинальное название: The Expendables
Год выхода: 2010
Жанр: боевик, триллер, приключения
Режиссер: Сильвестр Сталлоне
В ролях: Сильвестр Сталлоне, Джейсон Стэтхэм, Джет Ли, Дольф Лундгрен, Эрик Робертс, Рэнди Кутюр, Стив Остин, Дэвид Зайас, Жизель Итье, Харизма Карпентер
О фильме
Отряд профессиональных наёмников и отчаянных парней во главе с Барни Россом получает непростое задание — любой ценой найти и уничтожить кровавого тирана-диктатора, нагнетающего страх на мирное население и сеющего хаос в южноамериканской стране.
Отправляясь на выполнение нелёгкой миссии, закалённые огнём и водой, прошедшие не одну войну, люди Росса попадают в самое пекло. Отныне им придётся выживать: сплотиться и достигнуть цели, либо отчаяться и погибнуть. И всё же эти храбрые, поистине невозмутимые ребята готовы реализовать даже не реализуемое. Но не всё так просто, как кажется на первый взгляд…
Дополнительно
Выпущено: Millennium Films
Продолжительность: 01:43:27
Перевод: Дублированный
Файл
Качество: BDRip 1080p (исходник Blu-ray Disc)
Видео: 1920x816, 5410 Kbps, 23.976 кадр/сек, AVC, x264, 2.35, 0.144 Бит/(Пиксели*Кадры)
Аудио: AC-3, 640 Кбит/сек, 6 канала(ов), 48,0 КГц
Чаптеры: Есть
Размер: 4.37 Гб

MediaInfo

Format                                   : Matroska
Format version                           : Version 4 / Version 2
File size                                : 4.36 GiB
Duration                                 : 1h 43mn
Overall bit rate                         : 6 038 Kbps
Movie name                               : Неудержимые.(2010).BDRip1080p.от.[mitrian].[NOLIMITS-TEAM]
Encoded date                             : UTC 2010-02-22 21:41:31
Writing application                      : mkvmerge v5.9.0 ('On The Loose') built on Dec  9 2012 15:37:01
Writing library                          : libebml v1.3.0 + libmatroska v1.4.0
Video
ID                                       : 1
Format                                   : AVC
Format/Info                              : Advanced Video Codec
Format profile                           : High@L4.1
Format settings, CABAC                   : Yes
Format settings, ReFrames                : 5 frames
Codec ID                                 : V_MPEG4/ISO/AVC
Duration                                 : 1h 43mn
Bit rate                                 : 5 410 Kbps
Width                                    : 1 920 pixels
Height                                   : 816 pixels
Display aspect ratio                     : 2.35:1
Original display aspect ratio            : 2.35:1
Frame rate mode                          : Constant
Frame rate                               : 23.976 fps
Color space                              : YUV
Chroma subsampling                       : 4:2:0
Bit depth                                : 8 bits
Scan type                                : Progressive
Bits/(Pixel*Frame)                       : 0.144
Stream size                              : 3.81 GiB (87%)
Title                                    : Неудержимые (2010) BDRip 1080p от NOLIMITS-TEAM
Writing library                          : x264 core 129 r2230 1cffe9f
Encoding settings                        : cabac=1 / ref=5 / deblock=1:0:0 / analyse=0x3:0x113 / me=umh / subme=10 / psy=1 / psy_rd=1.00:0.10 / mixed_ref=1 / me_range=32 / chroma_me=1 / trellis=2 / 8x8dct=1 / cqm=0 / deadzone=21,11 / fast_pskip=0 / chroma_qp_offset=-3 / threads=6 / lookahead_threads=1 / sliced_threads=0 / slices=4 / nr=0 / decimate=0 / interlaced=0 / bluray_compat=0 / constrained_intra=0 / bframes=5 / b_pyramid=2 / b_adapt=2 / b_bias=0 / direct=3 / weightb=1 / open_gop=0 / weightp=2 / keyint=240 / keyint_min=24 / scenecut=40 / intra_refresh=0 / rc_lookahead=60 / rc=2pass / mbtree=1 / bitrate=5410 / ratetol=2.0 / qcomp=0.60 / qpmin=0 / qpmax=51 / qpstep=4 / cplxblur=20.0 / qblur=0.5 / ip_ratio=1.40 / aq=1:1.00
Language                                 : English
Default                                  : Yes
Forced                                   : No
Audio
ID                                       : 2
Format                                   : AC-3
Format/Info                              : Audio Coding 3
Mode extension                           : CM (complete main)
Format settings, Endianness              : Big
Codec ID                                 : A_AC3
Duration                                 : 1h 43mn
Bit rate mode                            : Constant
Bit rate                                 : 640 Kbps
Channel(s)                               : 6 channels
Channel positions                        : Front: L C R, Side: L R, LFE
Sampling rate                            : 48.0 KHz
Bit depth                                : 16 bits
Compression mode                         : Lossy
Stream size                              : 474 MiB (11%)
Default                                  : Yes
Forced                                   : No
Menu
00:00:00.000                             : en:00:00:00.000
00:09:00.000                             : en:00:09:00.000
00:19:00.000                             : en:00:19:00.000
00:32:00.000                             : en:00:32:00.000
00:39:00.000                             : en:00:39:00.000
00:49:00.000                             : en:00:49:00.000
00:59:00.000                             : en:00:59:00.000
01:08:00.000                             : en:01:08:00.000
01:18:00.000                             : en:01:18:00.000
01:25:00.000                             : en:01:25:00.000
01:33:00.000                             : en:01:33:00.000
01:39:00.000                             : en:01:39:00.000

Неудержимые 2 / The Expendables 2 (2012) BDRip 1080p {US-Transfer} от NoLimits-Team


Информация о фильме
Название: Неудержимые 2
Оригинальное название: The Expendables 2
Год выхода: 2012
Жанр: боевик, триллер
Режиссер: Саймон Уэст
В ролях: Сильвестр Сталлоне, Джейсон Стэйтем, Дольф Лундгрен, Жан-Клод Ван Дамм, Терри Крюс, Рэнди Кутюр, Лиам Хемсворт, Юй Нань, Брюс Уиллис, Арнольд Шварценеггер
О фильме
Можно ли попробовать изменить расстановку сил в мире? Да, если вы круты как Ван Дамм, у вас есть пять тонн плутония и первоклассные наемники. Стоит ли шутить с Уиллисом, когда вы ему серьезно задолжали? Нет, даже если вы опасны как Сталлоне и у вас за спиной Неудержимые.
Кого позвать на такое плевое дельце, как спасение мира? Пара проверенных ребят, Стэйтем и Норрис, явно не помешают. Пригодятся и малыш Хемсворт, и опасная красотка. Но команда будет неполной без Шварценеггера. Он реально вернулся! Все в сборе. Понеслась…
Дополнительно
Выпущено: Millennium Films
Продолжительность: 01:42:17
Перевод: Дублированный (лицензия)
Файл
Качество: BDRip 1080p (исходник Blu-ray Disc)
Видео: 1920x800, 5455 Kbps, 23.976 кадр/сек, AVC, x264, 2.35, 0.148 Бит/(Пиксели*Кадры)
Аудио: AC-3, 640 Кбит/сек, 6 канала(ов), 48,0 КГц
Чаптеры: Есть
Размер: 4.37 Гб

MediaInfo

Format                                   : Matroska
Format version                           : Version 4 / Version 2
File size                                : 4.36 GiB
Duration                                 : 1h 42mn
Overall bit rate                         : 6 081 Kbps
Movie name                               : Неудержимые.2.(2012).BDRip1080p.от.[mitrian].[NOLIMITS-TEAM]
Encoded date                             : UTC 2010-02-22 21:41:31
Writing application                      : mkvmerge v5.9.0 ('On The Loose') built on Dec  9 2012 15:37:01
Writing library                          : libebml v1.3.0 + libmatroska v1.4.0
Video
ID                                       : 1
Format                                   : AVC
Format/Info                              : Advanced Video Codec
Format profile                           : High@L4.1
Format settings, CABAC                   : Yes
Format settings, ReFrames                : 5 frames
Codec ID                                 : V_MPEG4/ISO/AVC
Duration                                 : 1h 42mn
Bit rate                                 : 5 455 Kbps
Width                                    : 1 920 pixels
Height                                   : 800 pixels
Display aspect ratio                     : 2.40:1
Frame rate mode                          : Constant
Frame rate                               : 23.976 fps
Color space                              : YUV
Chroma subsampling                       : 4:2:0
Bit depth                                : 8 bits
Scan type                                : Progressive
Bits/(Pixel*Frame)                       : 0.148
Stream size                              : 3.82 GiB (87%)
Title                                    : Неудержимые 2 (2012) BDRip 1080p от NOLIMITS-TEAM
Writing library                          : x264 core 129 r2230 1cffe9f
Encoding settings                        : cabac=1 / ref=5 / deblock=1:0:0 / analyse=0x3:0x113 / me=umh / subme=10 / psy=1 / psy_rd=1.00:0.10 / mixed_ref=1 / me_range=32 / chroma_me=1 / trellis=2 / 8x8dct=1 / cqm=0 / deadzone=21,11 / fast_pskip=0 / chroma_qp_offset=-3 / threads=6 / lookahead_threads=1 / sliced_threads=0 / slices=4 / nr=0 / decimate=0 / interlaced=0 / bluray_compat=0 / constrained_intra=0 / bframes=5 / b_pyramid=2 / b_adapt=2 / b_bias=0 / direct=3 / weightb=1 / open_gop=0 / weightp=2 / keyint=240 / keyint_min=24 / scenecut=40 / intra_refresh=0 / rc_lookahead=60 / rc=2pass / mbtree=1 / bitrate=5455 / ratetol=2.0 / qcomp=0.60 / qpmin=0 / qpmax=51 / qpstep=4 / cplxblur=20.0 / qblur=0.5 / ip_ratio=1.40 / aq=1:1.00
Language                                 : English
Default                                  : Yes
Forced                                   : No
Audio
ID                                       : 2
Format                                   : AC-3
Format/Info                              : Audio Coding 3
Mode extension                           : CM (complete main)
Format settings, Endianness              : Big
Codec ID                                 : A_AC3
Duration                                 : 1h 42mn
Bit rate mode                            : Constant
Bit rate                                 : 640 Kbps
Channel(s)                               : 6 channels
Channel positions                        : Front: L C R, Side: L R, LFE
Sampling rate                            : 48.0 KHz
Bit depth                                : 16 bits
Compression mode                         : Lossy
Stream size                              : 470 MiB (11%)
Default                                  : Yes
Forced                                   : No
Menu
00:00:00.000                             : en:00:00:00.000
00:09:00.000                             : en:00:09:00.000
00:19:00.000                             : en:00:19:00.000
00:32:00.000                             : en:00:32:00.000
00:39:00.000                             : en:00:39:00.000
00:49:00.000                             : en:00:49:00.000
00:59:00.000                             : en:00:59:00.000
01:08:00.000                             : en:01:08:00.000
01:18:00.000                             : en:01:18:00.000
01:25:00.000                             : en:01:25:00.000
01:33:00.000                             : en:01:33:00.000
01:39:00.000                             : en:01:39:00.000
Релиз Группа | Автор Рипа:
[Профиль] [ЛС]
Показать сообщения:    

Текущее время: Сегодня 04:14

Часовой пояс: GMT



Вы не можете начинать темы
Вы не можете отвечать на сообщения
Вы не можете редактировать свои сообщения
Вы не можете удалять свои сообщения
Вы не можете голосовать в опросах
Вы не можете прикреплять файлы к сообщениям
Вы не можете скачивать файлы