Неудачник (Василий Голиков) [1972, Кукольный мультфильм, DVDRip]

 
Автор Сообщение

TorrentFilm ®

Пол:

Стаж: 2 года

Сообщений: 7741



Награды: Нет

Торрент-статистика

Создавать темы 31-Окт-2015 00:09

[Цитировать]

Неудачник
Страна: СССР
Жанр: Кукольный мультфильм
Продолжительность: 00:08:17
Год выпуска: 1972
Русские субтитры: нет
Режиссёр: Василий Голиков
Описание: Один мальчик очень плохо учится, потому что у него не хватает времени на учёбу. Всё своё время он тратит на дрессировку животных. Сначала он дрессирует кота, а затем — быка, и это у него получается. Затем он устраивается на работу в цирк, где дрессирует уже цирковых животных.
Доп. информация: «Беларусьфильм»
Автор сценария:Роман Качанов,Эдуард Успенский
Композитор А. Шпенев
Оператор Г. Куринной
Звукооператор П. Дроздов
Раздача группы:
Постер by Karamelika
Качество: DVDRip
Формат: AVI
Видео: 640x464 (1.38:1), 25 fps, XviD MPEG-4 ~1499 kbps avg, 0.20 bit/pixel
Аудио: 48 kHz, MPEG Layer 3, 2 ch, ~128.00 kbps avg
Субтитры: нет

Подробные технические данные

Format : AVIFormat/Info : Audio Video InterleaveFile size : 97.2 MiBDuration : 8mn 17sOverall bit rate : 1 637 KbpsWriting application : VirtualDubMod 1.5.10.3 | www.virtualdub-fr.org || (build 2550/release)Writing library : VirtualDubMod build 2550/release
VideoID : 0Format : MPEG-4 VisualFormat profile : Advanced Simple@L5Format settings, BVOP : 2Format settings, QPel : NoFormat settings, GMC : No warppointsFormat settings, Matrix : Default (H.263)Muxing mode : Packed bitstreamCodec ID : XVIDCodec ID/Hint : XviDDuration : 8mn 17sBit rate : 1 500 KbpsWidth : 640 pixelsHeight : 464 pixelsDisplay aspect ratio : 1.379Frame rate : 25.000 fpsColor space : YUVChroma subsampling : 4:2:0Bit depth : 8 bitsScan type : ProgressiveCompression mode : LossyBits/(Pixel*Frame) : 0.202Stream size : 89.0 MiB (92%)Writing library : XviD 73
AudioID : 1Format : MPEG AudioFormat version : Version 1Format profile : Layer 3Codec ID : 55Codec ID/Hint : MP3Duration : 8mn 17sBit rate mode : ConstantBit rate : 128 KbpsChannel(s) : 2 channelsSampling rate : 48.0 KHzCompression mode : LossyStream size : 7.60 MiB (8%)Alignment : Aligned on interleavesInterleave, duration : 40 ms (1.00 video frame)Interleave, preload duration : 504 msWriting library : LAME3.99rEncoding settings : -m s -V 4 -q 2 -lowpass 17 -b 128

Скриншоты

[Профиль] [ЛС]
Кто просматривает тему:

Форум Тема Автор Размер
Фильмы (HD Rips | 720p, 1080p) Неудачники / Underdog Kids (2015) WEB-DL 720p | L1 достали все 3.09 GB
Фильмы 2015 года Неудачники / Underdog Kids (Филлип Ри / Phillip Rhee) [2015, США, Боевик, семейный, WEB-DLRip] VO TorrentFilm 1.37 GB
Фильмы 2015 года Неудачники / Underdog Kids (Филлип Ри) [2015, боевик, семейный] WEB-DLRip | L1 BOSS 1.37 GB
R.G.TorrentFilm Video Неудачники / Лучшие из худших / Underdog Kids (Филлип Ри / Phillip Rhee) [2015 г., Боевик, семейный, WEB-DLRip] VO (Paul Bunyan) Один 777 748 MB
Зарубежные мультфильмы Пираты! Банда неудачников / The Pirates! Band of Misfits (2012) BDRip 1080p Russian Mafia 4.38 GB
Зарубежные мультфильмы Пираты! Банда неудачников / The Pirates! Band of Misfits (2012) BDRip 720p | Лицензия Russian Mafia 3.55 GB
Зарубежные мультфильмы Пираты! Банда неудачников / The Pirates! Band of Misfits (2012) BDRip от HQCLUB | Лицензия Russian Mafia 1.45 GB
Зарубежные мультфильмы Пираты! Банда неудачников / The Pirates! Band of Misfits (2012) Blu-ray CEE 1080p | D | Лицензия Russian Mafia 29.97 GB
Показать сообщения:    

Текущее время: Сегодня 17:35

Часовой пояс: GMT



Вы не можете начинать темы
Вы не можете отвечать на сообщения
Вы не можете редактировать свои сообщения
Вы не можете удалять свои сообщения
Вы не можете голосовать в опросах
Вы не можете прикреплять файлы к сообщениям
Вы не можете скачивать файлы