Нет такого номера / Nie ma takiego numeru (Бартош Бжескот / Bartosz Brzeskot) [2007, Польша, комедия, криминал, DVDRip-AVC] VO (Doctor Joker) + Sub (Rus, Ukr) + Original (Pol)

 
Автор Сообщение

reversefile ®

Пол:

Стаж: 4 года 5 месяцев

Сообщений: 842

Откуда: ReverseFile.org



Награды: Нет

Торрент-статистика

Создавать темы 13-Авг-2014 10:03

[Цитировать]

Нет такого номера / Nie ma takiego numeru
Страна: Польша
Жанр: комедия, криминал
Год выпуска: 2007
Продолжительность: 01:36:25
Перевод: Одноголосый закадровый - Алексей Матвеев, по переводу - bohdk и Ольги Левицкой.
Cубтитры: русские, украинские
Оригинальная аудиодорожка: польский
Режиссер: Бартош Бжескот / Bartosz Brzeskot
В ролях: Марцель Верциховский, Богуслав Семотюк, Петр Плева, Дариуш Старчевский, Бартош Бжескот, Ян Махульский, Ян Новицкий, Агнезка Павлак и др.
Описание:
Группа мошенников решаются на лучшее ограбление в их жизни - грабёж сейфа в казино, которое занимается отмыванием денег коррумпированных чиновников из мира политики. Для этого они разрабатывают безукоризненный план. Но от непредвиденных ситуаций никто не застрахован…
Доп. информация:
Перевод - bohdk и Ольга Левицкая. Заказ перевода - будулайроманов
Озвучка Алексея Матвеева доступна благодаря будулайроманову и mihaildns.
Работа со звуком и рип - mihaildns.

Файл:
Качество видео: DVDRip-AVC, исходник [DVD5]
Формат видео: MKV
Видео: 704x400 (16:9), 2488 kbps, 25 fps, 0.353 bit/pixel
Аудио 1: 48 kHz, AC3, 2/0 (L,R) ch, 192 kbps - Матвеев, (ненормативная лексика!)
Аудио 2: 48 kHz, AC3, 2/0 (L,R) ch, 192 kbps - Матвеев, (цензурный перевод)
Аудио 3: 48 kHz, AC3, 2/0 (L,R) ch, 192 kbps - Pol

MediaInfo

Общее
Уникальный идентификатор : 239247594018326286854205680186124476765 (0xB3FD69196D8D37C2AD46B26B13A1215D)
Формат : Matroska
Версия формата : Version 2
Размер файла : 2,07 Гбайт
Продолжительность : 1 ч. 36 м.
Общий поток : 3067 Кбит/сек
Название фильма : Нет такого номера (Nie ma takiego numeru) 2007г. Польша.
Дата кодирования : UTC 2014-08-01 16:34:02
Программа кодирования : mkvmerge v2.9.7 ('Tenderness') built on Jul 1 2009 18:43:35
Библиотека кодирования : libebml v0.7.7 + libmatroska v0.8.1
Видео
Идентификатор : 1
Формат : AVC
Формат/Информация : Advanced Video Codec
Профиль формата : High@L4.1
Параметр CABAC формата : Да
Параметр ReFrames формата : 10 кадров
Идентификатор кодека : V_MPEG4/ISO/AVC
Продолжительность : 1 ч. 36 м.
Битрейт : 2488 Кбит/сек
Ширина : 704 пикселя
Высота : 400 пикселей
Соотношение сторон : 16:9
Режим частоты кадров : Постоянный
Частота кадров : 25,000 кадров/сек
Цветовое пространство : YUV
Субдискретизация насыщенности : 4:2:0
Битовая глубина : 8 бит
Тип развёртки : Прогрессивная
Бит/(Пиксели*Кадры) : 0.353
Размер потока : 1,64 Гбайт (79%)
Заголовок : Rip by mihaildns
Библиотека кодирования : x264 core 125 r2208 d9d2288
Настройки программы : cabac=1 / ref=10 / deblock=1:-3:-3 / analyse=0x3:0x111 / me=umh / subme=9 / psy=1 / psy_rd=1.00:0.00 / mixed_ref=1 / me_range=48 / chroma_me=1 / trellis=2 / 8x8dct=1 / cqm=0 / deadzone=21,11 / fast_pskip=0 / chroma_qp_offset=-2 / threads=3 / lookahead_threads=1 / sliced_threads=0 / nr=0 / decimate=1 / interlaced=0 / bluray_compat=0 / constrained_intra=0 / bframes=11 / b_pyramid=2 / b_adapt=2 / b_bias=0 / direct=3 / weightb=1 / open_gop=0 / weightp=2 / keyint=250 / keyint_min=25 / scenecut=40 / intra_refresh=0 / rc_lookahead=50 / rc=2pass / mbtree=1 / bitrate=2488 / ratetol=1.0 / qcomp=0.60 / qpmin=0 / qpmax=69 / qpstep=4 / cplxblur=20.0 / qblur=0.5 / ip_ratio=1.40 / aq=1:1.10
Язык : Polish
Default : Да
Forced : Нет
Аудио #1
Идентификатор : 2
Формат : AC-3
Формат/Информация : Audio Coding 3
Расширение режима : CM (complete main)
Параметр Endianness формата : Big
Идентификатор кодека : A_AC3
Продолжительность : 1 ч. 36 м.
Вид битрейта : Постоянный
Битрейт : 192 Кбит/сек
Каналы : 2 канала
Расположение каналов : Front: L R
Частота : 48,0 КГц
Битовая глубина : 16 бит
Метод сжатия : С потерями
Размер потока : 132 Мбайт (6%)
Заголовок : Матвеев (ненормативный перевод)
Язык : Russian
Default : Да
Forced : Нет
Аудио #2
Идентификатор : 3
Формат : AC-3
Формат/Информация : Audio Coding 3
Расширение режима : CM (complete main)
Параметр Endianness формата : Big
Идентификатор кодека : A_AC3
Продолжительность : 1 ч. 36 м.
Вид битрейта : Постоянный
Битрейт : 192 Кбит/сек
Каналы : 2 канала
Расположение каналов : Front: L R
Частота : 48,0 КГц
Битовая глубина : 16 бит
Метод сжатия : С потерями
Размер потока : 132 Мбайт (6%)
Заголовок : Матвеев (цензурный перевод)
Язык : Russian
Default : Нет
Forced : Нет
Аудио #3
Идентификатор : 4
Формат : AC-3
Формат/Информация : Audio Coding 3
Расширение режима : CM (complete main)
Параметр Endianness формата : Big
Идентификатор кодека : A_AC3
Продолжительность : 1 ч. 36 м.
Вид битрейта : Постоянный
Битрейт : 192 Кбит/сек
Каналы : 2 канала
Расположение каналов : Front: L R
Частота : 48,0 КГц
Битовая глубина : 16 бит
Метод сжатия : С потерями
Размер потока : 132 Мбайт (6%)
Заголовок : Оригинал
Язык : Polish
Default : Нет
Forced : Нет
Текст #1
Идентификатор : 5
Формат : UTF-8
Идентификатор кодека : S_TEXT/UTF8
Идентификатор кодека/Информация : UTF-8 Plain Text
Заголовок : Русский (перевод - bohdk, Ольга Левицкая)
Язык : Russian
Default : Да
Forced : Нет
Текст #2
Идентификатор : 6
Формат : UTF-8
Идентификатор кодека : S_TEXT/UTF8
Идентификатор кодека/Информация : UTF-8 Plain Text
Заголовок : Украинский
Язык : Ukrainian
Default : Нет
Forced : Нет

Скриншот c названием фильма

Скриншоты

[Профиль] [ЛС]

Создавать темы 06-Авг-2015 23:19 (спустя 11 месяцев 24 дня)

Топик был перенесен из форума Фильмы до 2014 года в форум Фильмы до 2012 года
sergej644
 
Кто просматривает тему:

Показать сообщения:    

Текущее время: Сегодня 17:57

Часовой пояс: GMT



Вы не можете начинать темы
Вы не можете отвечать на сообщения
Вы не можете редактировать свои сообщения
Вы не можете удалять свои сообщения
Вы не можете голосовать в опросах
Вы не можете прикреплять файлы к сообщениям
Вы не можете скачивать файлы