Несносные леди / Mother's Day (2016) BDRip 1080p от ExKinoRay | iTunes

 
Автор Сообщение

Russian Mafia ®

Пол:

Стаж: 1 год 8 месяцев

Сообщений: 4253



Награды: 10 (Подробнее)

Top Releaser 2 (Количество: 1) За внесенный вклад в развитие сайта (Количество: 1) Mega Seeder 4 (Количество: 1)
Торрент-статистика

Создавать темы 04-Авг-2016 14:22

[Цитировать]

Информация о фильме
Название: Несносные леди
Оригинальное название: Mother's Day
Год выхода: 2016
Жанр: драма, комедия
Режиссер: Гэрри Маршалл
В ролях: Дженнифер Энистон, Джулия Робертс, Кейт Хадсон, Джейсон Судейкис, Тимоти Олифант, Шэй Митчелл, Калеб Браун, Брэндон Спинк, Сэм Маршалл, Сиена ЛаГамбина
О фильме:
Фитнес и шопинг, капризные предки и непослушные дети, завистливые подружки и надоевшие бывшие — милые составляющие настоящего женского счастья. А также мужского, если ты — отец-одиночка. И неважно, где и как сведет вас жизнь, если ты встретишь настоящую любовь. Главное — не сдаваться! Ведь судьба — это большой супермаркет, а не магазин на диване.

Страна: США
Студия: Aperture Media Partners, Beatnik Films, Capacity Pictures, Gulfstream Pictures
Продолжительность: 01:58:50
Перевод: Дублированный | iTunes
Файл
Кодек: x264
Качество: BDRip 1080p
Видео: 1920x1040, 13.8 Mbit/s, 23.976 fps
Звук:
Аудио #01: 48 kHz, AC3, 5.1, 384 Kbps | Дублированный, iTunes |
Аудио #02: 48 kHz, DTS, 5.1, 1510 kbps | Оригинал |
Субтитры: Английские

MI

General
Unique ID : 190882222457796434737766417569216829210 (0x8F9A942CC74B59C8A665987288ED971A)
Complete name : G:VideoMothers.Day.2016.BDRip.1080p.ExKinoRay.mkv
Format : Matroska
Format version : Version 4 / Version 2
File size : 13.0 GiB
Duration : 1h 58mn
Overall bit rate : 15.7 Mbps
Movie name : Mothers.Day.2016.BDRip.1080p.ExKinoRay
Encoded date : UTC 2016-07-23 07:07:15
Writing application : mkvmerge v8.3.0 ('Over the Horizon') 64bit
Writing library : libebml v1.3.1 + libmatroska v1.4.2
Video
ID : 1
Format : AVC
Format/Info : Advanced Video Codec
Format profile : High@L4.1
Format settings, CABAC : Yes
Format settings, ReFrames : 4 frames
Codec ID : V_MPEG4/ISO/AVC
Duration : 1h 58mn
Bit rate : 13.8 Mbps
Width : 1 920 pixels
Height : 1 040 pixels
Display aspect ratio : 1.85:1
Frame rate mode : Constant
Frame rate : 23.976 (24000/1001) fps
Color space : YUV
Chroma subsampling : 4:2:0
Bit depth : 8 bits
Scan type : Progressive
Bits/(Pixel*Frame) : 0.287
Stream size : 11.4 GiB (88%)
Writing library : x264 core 146 r2538 121396c
Encoding settings : cabac=1 / ref=4 / deblock=1:-3:-3 / analyse=0x3:0x133 / me=umh / subme=11 / psy=1 / psy_rd=1.04:0.00 / mixed_ref=1 / me_range=32 / chroma_me=1 / trellis=2 / 8x8dct=1 / cqm=0 / deadzone=21,11 / fast_pskip=0 / chroma_qp_offset=-2 / threads=60 / lookahead_threads=8 / sliced_threads=0 / nr=0 / decimate=0 / interlaced=0 / bluray_compat=0 / constrained_intra=0 / bframes=10 / b_pyramid=2 / b_adapt=2 / b_bias=0 / direct=3 / weightb=1 / open_gop=0 / weightp=2 / keyint=240 / keyint_min=23 / scenecut=40 / intra_refresh=0 / rc_lookahead=150 / rc=crf / mbtree=0 / crf=17.5 / qcomp=0.60 / qpmin=0 / qpmax=69 / qpstep=4 / vbv_maxrate=62500 / vbv_bufsize=78125 / crf_max=0.0 / nal_hrd=none / filler=0 / ip_ratio=1.40 / pb_ratio=1.30 / aq=1:0.80
Language : English
Default : Yes
Forced : No
Audio #1
ID : 2
Format : AC-3
Format/Info : Audio Coding 3
Mode extension : CM (complete main)
Format settings, Endianness : Big
Codec ID : A_AC3
Duration : 1h 58mn
Bit rate mode : Constant
Bit rate : 384 Kbps
Channel(s) : 6 channels
Channel positions : Front: L C R, Side: L R, LFE
Sampling rate : 48.0 KHz
Frame rate : 31.250 fps (1536 spf)
Compression mode : Lossy
Stream size : 326 MiB (2%)
Title : DUB [iTunes]
Language : Russian
Default : Yes
Forced : No
Audio #2
ID : 3
Format : DTS
Format/Info : Digital Theater Systems
Mode : 16
Format settings, Endianness : Big
Codec ID : A_DTS
Duration : 1h 58mn
Bit rate mode : Constant
Bit rate : 1 509 Kbps
Channel(s) : 6 channels
Channel positions : Front: L C R, Side: L R, LFE
Sampling rate : 48.0 KHz
Frame rate : 93.750 fps (512 spf)
Bit depth : 24 bits
Compression mode : Lossy
Stream size : 1.25 GiB (10%)
Title : Original
Language : English
Default : No
Forced : No
Text #1
ID : 4
Format : UTF-8
Codec ID : S_TEXT/UTF8
Codec ID/Info : UTF-8 Plain Text
Duration : 1h 57mn
Bit rate : 85 bps
Count of elements : 2467
Stream size : 74.1 KiB (0%)
Title : Full
Language : English
Default : No
Forced : No
Text #2
ID : 5
Format : UTF-8
Codec ID : S_TEXT/UTF8
Codec ID/Info : UTF-8 Plain Text
Duration : 1h 58mn
Bit rate : 91 bps
Count of elements : 2621
Stream size : 79.1 KiB (0%)
Title : SDH
Language : English
Default : No
Forced : No
Menu
00:00:00.000 : en:Chapter 1
00:05:50.891 : en:Chapter 2
00:08:50.111 : en:Chapter 3
00:15:32.389 : en:Chapter 4
00:22:11.413 : en:Chapter 5
00:28:43.721 : en:Chapter 6
00:35:48.646 : en:Chapter 7
00:43:12.297 : en:Chapter 8
00:48:07.717 : en:Chapter 9
00:55:35.248 : en:Chapter 10
00:59:36.155 : en:Chapter 11
01:05:33.179 : en:Chapter 12
01:10:23.636 : en:Chapter 13
01:18:21.697 : en:Chapter 14
01:23:46.979 : en:Chapter 15
01:29:07.591 : en:Chapter 16
01:34:27.828 : en:Chapter 17
01:38:48.421 : en:Chapter 18
01:44:50.324 : en:Chapter 19
01:49:32.064 : en:Chapter 20

Скриншоты

Релиз от: Автор релиза:
[Профиль] [ЛС]
Показать сообщения:    

Текущее время: Сегодня 12:52

Часовой пояс: GMT



Вы не можете начинать темы
Вы не можете отвечать на сообщения
Вы не можете редактировать свои сообщения
Вы не можете удалять свои сообщения
Вы не можете голосовать в опросах
Вы не можете прикреплять файлы к сообщениям
Вы не можете скачивать файлы