Несносные боссы 2 / Horrible Bosses 2 (2014) BDRip 1080p от NNNB | iTunes

 
Автор Сообщение

sergej644 ®

Пол:

Стаж: 4 года 11 месяцев

Сообщений: 6035

Откуда: Soviet Union



Награды: Нет

Торрент-статистика

Создавать темы 26-Фев-2015 20:54

[Цитировать]

Несносные боссы 2 / Horrible Bosses 2
«Боссы - новые, методы - старые»
Русское название: Несносные боссы 2
Оригинальное название: Horrible Bosses 2
Год выпуска: 2014
Жанр: комедия
Выпущено: США
Режиссер: Шон Андерс
В ролях: Джейсон Бейтман , Джейсон Судейкис , Чарли Дэй , Крис Пайн , Дженнифер Энистон , Кристоф Вальц , Джейми Фокс , Кевин Спейси , Джонатан Бэнкс , Линдсей Слоун , Кигэн-Майкл Ки , Келли Стейблз
Перевод: Дублированный - [iTunes]

Сюжет фильма:
Ник, Дэйл и Курт решают сами стать боссами и открывают собственный бизнес. Но инвестор кидает их. Тогда они решают похитить его взрослого сына, чтобы получить выкуп и вернуть себе контроль над компанией.

R - Лицам до 17 лет обязательно присутствие взрослого

Знаете ли вы, что...

Это первый сиквел в карьере Дженнифер Энистон.
Сцену погони по ночному Лос-Анджелесу пришлось снимать с привлечением сразу 18 каскадеров.
Изобретение, которое герои представляют в прямом эфире телепередачи - душевая кабина «Мыльный братец», - было придумано сценаристами картины и оказалось первым в своем роде. Авторы даже подумывали его запатентовать.
Качество: BDRip 1080p
Формат: AVC (библиотека кодирования x.264)
Контейнер (Расширение): MKV
Видео: 1920x800 (2.40:1), 10664 Кбит/сек, 23,976 кадр/сек, 0,290 Бит/[Пиксели*Кадры]
Аудио №1: русский / AC3 / 5.1 / 48 kHz / 384 kbps / |Дублированный, iTunes|
Аудио №2: английский / AC3 / 5.1 / 48 kHz / 640 kbps /
Субтитры: русские (Forced), русские (Full)
Навигация по главам(Чаптеры): есть
Продолжительность: 01:48:26

MediaInfo

Format : Matroska
Format version : Version 2
File size : 9.03 GiB
Duration : 1h 48mn
Overall bit rate : 11.9 Mbps
Movie name : Nesnosnye bossy 2.(2014).BDRip.1080p.[denis100]
Encoded date : UTC 2015-02-16 09:09:35
Writing application : mkvmerge v5.8.0 ('No Sleep / Pillow') built on Sep 2 2012 15:37:04
Writing library : libebml v1.2.3 + libmatroska v1.3.0
Video
ID : 1
Format : AVC
Format/Info : Advanced Video Codec
Format profile : High@L4.1
Format settings, CABAC : Yes
Format settings, ReFrames : 5 frames
Codec ID : V_MPEG4/ISO/AVC
Duration : 1h 48mn
Bit rate : 10.7 Mbps
Width : 1 920 pixels
Height : 800 pixels
Display aspect ratio : 2.40:1
Frame rate : 23.976 fps
Color space : YUV
Chroma subsampling : 4:2:0
Bit depth : 8 bits
Scan type : Progressive
Bits/(Pixel*Frame) : 0.290
Stream size : 8.08 GiB (89%)
Title : Nesnosnye bossy 2.(2014).BDRip.1080p.[denis100]
Writing library : x264 core 144 r2525 40bb568
Encoding settings : cabac=1 / ref=5 / deblock=1:-3:-3 / analyse=0x3:0x133 / me=umh / subme=11 / psy=1 / psy_rd=1.00:0.05 / mixed_ref=1 / me_range=32 / chroma_me=1 / trellis=2 / 8x8dct=1 / cqm=0 / deadzone=21,11 / fast_pskip=0 / chroma_qp_offset=-3 / threads=6 / lookahead_threads=1 / sliced_threads=0 / nr=0 / decimate=1 / interlaced=0 / bluray_compat=0 / constrained_intra=0 / bframes=8 / b_pyramid=2 / b_adapt=2 / b_bias=0 / direct=3 / weightb=1 / open_gop=0 / weightp=2 / keyint=240 / keyint_min=23 / scenecut=40 / intra_refresh=0 / rc=crf / mbtree=0 / crf=17.0 / qcomp=0.60 / qpmin=0 / qpmax=69 / qpstep=4 / ip_ratio=1.40 / pb_ratio=1.30 / aq=1:0.90
Language : English
Default : Yes
Forced : No
Audio #1
ID : 2
Format : AC-3
Format/Info : Audio Coding 3
Mode extension : CM (complete main)
Codec ID : A_AC3
Duration : 1h 48mn
Bit rate mode : Constant
Bit rate : 384 Kbps
Channel(s) : 6 channels
Channel positions : Front: L C R, Side: L R, LFE
Sampling rate : 48.0 KHz
Bit depth : 16 bits
Compression mode : Lossy
Stream size : 298 MiB (3%)
Title : Дублированный, iTunes
Language : Russian
Default : Yes
Forced : No
Audio #2
ID : 3
Format : AC-3
Format/Info : Audio Coding 3
Mode extension : CM (complete main)
Codec ID : A_AC3
Duration : 1h 48mn
Bit rate mode : Constant
Bit rate : 640 Kbps
Channel(s) : 6 channels
Channel positions : Front: L C R, Side: L R, LFE
Sampling rate : 48.0 KHz
Bit depth : 16 bits
Compression mode : Lossy
Stream size : 496 MiB (5%)
Title : English
Language : English
Default : No
Forced : No
Text #1
ID : 4
Format : UTF-8
Codec ID : S_TEXT/UTF8
Codec ID/Info : UTF-8 Plain Text
Title : Forced
Language : Russian
Default : Yes
Forced : No
Text #2
ID : 5
Format : UTF-8
Codec ID : S_TEXT/UTF8
Codec ID/Info : UTF-8 Plain Text
Title : Full
Language : Russian
Default : No
Forced : No
Menu
00:00:00.000 : en:00:00:00.000
00:06:52.161 : en:00:06:52.161
00:18:51.880 : en:00:18:51.880
00:28:37.548 : en:00:28:37.548
00:38:21.798 : en:00:38:21.798
00:47:15.748 : en:00:47:15.748
00:56:34.014 : en:00:56:34.014
01:05:24.168 : en:01:05:24.168
01:13:48.340 : en:01:13:48.340
01:21:49.988 : en:01:21:49.988
01:29:31.865 : en:01:29:31.865
01:36:27.322 : en:01:36:27.322
01:39:43.143 : en:01:39:43.143

Скриншоты

[Профиль] [ЛС]
Показать сообщения:    

Текущее время: Сегодня 09:59

Часовой пояс: GMT



Вы не можете начинать темы
Вы не можете отвечать на сообщения
Вы не можете редактировать свои сообщения
Вы не можете удалять свои сообщения
Вы не можете голосовать в опросах
Вы не можете прикреплять файлы к сообщениям
Вы не можете скачивать файлы