Несломленный (Виржиния Восгиморукиан) (1-4 из4) [2015 г., Драма, криминал, экранизация, SATRip]

 
Автор Сообщение

Pensioner ®

Стаж: 8 месяцев 26 дней

Сообщений: 242

Откуда: Казахстан



Награды: 1 (Подробнее)

За внесенный вклад в развитие сайта (Количество: 1)
Торрент-статистика

Создавать темы 03-Авг-2017 10:05

[Цитировать]

Несломленный
Год выпуска: 2015
Страна: Казахстан, Компания "Arai Production"
Жанр: Драма, криминал, экранизация
Продолжительность: 4 х ~ 00:55:00
Перевод: Не требуется
Режиссер: Виржиния Восгиморукиан
В ролях: Азиз Бейшеналиев, Дмитрий Скирта, Санжар Мадиев, Гани Кулжанов, Карлыгаш Исабекова, Гульнара Дусматова, Асель Садвакасова, Айнур Ниязова, Турар Давильбеков, Сергей Уфимцев, Михаил Токарев, Айсулу Азимбаева, Илья Садыков, Жандос Айбасов, Владимир Крылов (III), Ирина Кельблер
Описание: Молодая республика Казахстан живет новой жизнью. Сколачиваются первые капиталы, меняется сознание людей. Как воплощение новой жизни - четыре лучших друга - Мара, Дос, Павел и Данияр. Главный герой Данияр стоит на пороге семейного счастья. Казалось бы, его ждет счастливая, размеренная жизнь... Но реальность оказывается иной, также как и Эдмона Дантеса, у главного героя впереди лишение свободы, забвение, боль и жажда жестокой мести. …Спустя 20 лет в Алматы приезжает таинственный бизнесмен. Его баснословное состояние открывает двери домов самых влиятельных людей города. Он ищет встречи с ними для того, чтобы вернуть старые долги.
Доп. информация:

MediaInfo

Общее
Полное имя : D:\моё видио\Несломленный.2015.SATRip.Files-x\01.Несломленный.2015.SATRip.Files-x.avi
Формат : AVI
Формат/Информация : Audio Video Interleave
Размер файла : 700 Мбайт
Продолжительность : 56 м.
Общий поток : 1746 Кбит/сек
Программа кодирования : VirtualDubMod 1.5.10.3 | www.virtualdub-fr.org || (build 2550/release)
Библиотека кодирования : VirtualDubMod build 2550/release
Видео
Идентификатор : 0
Формат : MPEG-4 Visual
Профиль формата : Advanced Simple@L5
Параметр BVOP формата : 1
Параметр QPel формата : Нет
Параметр GMC формата : Без точки перехода
Параметр матрицы формата : Выборочная
Идентификатор кодека : XVID
Идентификатор кодека/Подсказка : XviD
Продолжительность : 56 м.
Битрейт : 1545 Кбит/сек
Ширина : 720 пикселей
Высота : 400 пикселей
Соотношение сторон : 16:9
Частота кадров : 25,000 кадров/сек
Цветовое пространство : YUV
Субдискретизация насыщенности : 4:2:0
Битовая глубина : 8 бит
Тип развёртки : Прогрессивная
Метод сжатия : С потерями
Бит/(Пиксели*Кадры) : 0.215
Размер потока : 619 Мбайт (88%)
Библиотека кодирования : XviD 73
Аудио
Идентификатор : 1
Формат : AC-3
Формат/Информация : Audio Coding 3
Расширение режима : CM (complete main)
Параметр Endianness формата : Big
Идентификатор кодека : 2000
Продолжительность : 56 м.
Вид битрейта : Постоянный
Битрейт : 192 Кбит/сек
Каналы : 2 канала
Расположение каналов : Front: L R
Частота : 48,0 КГц
Битовая глубина : 16 бит
Метод сжатия : С потерями
Размер потока : 77,0 Мбайт (11%)
Выравнивание : Разделение по промежуткам
Продолжительность промежутка : 40 мс. (1,00 видеокадр)
Время предзагрузки промежутка : 500 мс.
Качество: SATRip
Формат: AVI
Видео кодек: XviD
Аудио кодек: AC3
Видео: ~ 1550 Кбит/с, 720x400
Аудио: 2 ch, 192 Кбит/с

Скриншоты

[Профиль] [ЛС]
Показать сообщения:    

Текущее время: Сегодня 05:54

Часовой пояс: GMT



Вы не можете начинать темы
Вы не можете отвечать на сообщения
Вы не можете редактировать свои сообщения
Вы не можете удалять свои сообщения
Вы не можете голосовать в опросах
Вы не можете прикреплять файлы к сообщениям
Вы не можете скачивать файлы