Неслабый пол / The Opposite Sex (2014) BDRip 720p | D | iTunes

 
Автор Сообщение

достали все ®

Пол:

Стаж: 1 год 8 месяцев

Сообщений: 6545



Награды: 12 (Подробнее)

Mega Seeder 1 (Количество: 1) Top Releaser 4 (Количество: 1) Mega Seeder 3 (Количество: 1)
Торрент-статистика

Создавать темы 13-Июн-2016 05:48

[Цитировать]

Неслабый пол / The Opposite Sex
Страна: США
Производство: Magna Entertainment, Verdi Productions
Год выпуска: 2014
Жанр: комедия
Продолжительность: 01:37:00
Режиссеры: Дженнифер Финниган, Джонатан Силвермен
Авторы сценария: Марк Массина, Стивен Сессионс
В ролях: Мена Сувари, Джофф Стульц, Эрик Робертс, Кристин Ченоуэт, Джош Хопкинс, Кенан Томпсон, Дебра Джо Рапп, Джонатан Силвермен
Описание: Винс — адвокат, который привык выигрывать везде и всюду. Победитель по жизни, он меняет девушек, как перчатки. Успешный холостяк, для которого доступна любая девушка в баре… кроме Джейн. Знакомство со сногсшибательной блондинкой Джейн ставит жизнь Винса сног на голову. И теперь главная его цель — заполучить ее любой ценой. Но для этого придется играть по ее правилам...

Перевод: Профессиональный (полное дублирование) | iTunes
Субтитры: нет-Качество: BDRip 720p
Формат: МКV
Видео кодек: AVC
Аудио кодек: АС3
Видео: 1280x720 (16:9), 23.976 fps, MPEG-4 AVC ~4 200 kbps avg
Аудио №1: 48 kHz, AC3 Dolby Digital, 3/2 (L,C,R,l,r) + LFE ch, ~384 kbps | RUS
Аудио №2: 48 kHz, AC3 Dolby Digital, 2/0 (L,R) ch, ~448.00 kbps | ENG
Дата премьеры (мир): 22 октября 2014
Дата премьеры (РФ): 19 мая 2016, «Кинологистика»

Media Info

General
Unique ID : 24225721809185299849673767740628933174 (0x1239B44D605D235E24D6EA54A1D21A36)
Format : Matroska
Format version : Version 4 / Version 2
Overall bit rate : 5 134 Kbps
Writing application : Lavf57.25.100
Writing library : Lavf57.25.100
Video
ID : 1
Format : AVC
Format/Info : Advanced Video Codec
Format profile : High@L4.1
Format settings, CABAC : Yes
Format settings, ReFrames : 5 frames
Codec ID : V_MPEG4/ISO/AVC
Bit rate : 4 200 Kbps
Width : 1 280 pixels
Height : 720 pixels
Display aspect ratio : 16:9
Frame rate mode : Constant
Frame rate : 23.976 fps
Color space : YUV
Chroma subsampling : 4:2:0
Bit depth : 8 bits
Scan type : Progressive
Bits/(Pixel*Frame) : 0.190
Stream size : 20.5 MiB (82%)
Language : English
Default : No
Forced : No
DURATION : 00:00:40.998000000
NUMBER_OF_FRAMES : 139102
NUMBER_OF_BYTES : 4367364013
_STATISTICS_WRITING_APP : mkvmerge v9.0.1 ('Obstacles') 64bit
_STATISTICS_WRITING_DATE_UTC : 2016-06-13 02:27:09
_STATISTICS_TAGS : BPS DURATION NUMBER_OF_FRAMES NUMBER_OF_BYTES
Audio #1
ID : 2
Format : AC-3
Format/Info : Audio Coding 3
Mode extension : CM (complete main)
Format settings, Endianness : Big
Codec ID : A_AC3
Bit rate mode : Constant
Bit rate : 384 Kbps
Channel(s) : 6 channels
Channel positions : Front: L C R, Side: L R, LFE
Sampling rate : 48.0 KHz
Compression mode : Lossy
Stream size : 1.88 MiB (7%)
Language : Russian
Default : Yes
Forced : Yes
Audio #2
ID : 3
Format : AC-3
Format/Info : Audio Coding 3
Mode extension : CM (complete main)
Format settings, Endianness : Big
Codec ID : A_AC3
Bit rate mode : Constant
Bit rate : 448 Kbps
Channel(s) : 2 channels
Channel positions : Front: L R
Sampling rate : 48.0 KHz
Compression mode : Lossy
Stream size : 2.19 MiB (9%)
Language : English
Default : No
Forced : No
_STATISTICS_WRITING_APP : mkvmerge v9.0.1 ('Obstacles') 64bit

Скриншоты

[Профиль] [ЛС]
Кто просматривает тему:

Форум Тема Автор Размер
Фильмы 2014 года Неслабый пол / The Opposite Sex (2014) HDRip | D | iTunes достали все 1.46 GB
Показать сообщения:    

Текущее время: Сегодня 20:43

Часовой пояс: GMT



Вы не можете начинать темы
Вы не можете отвечать на сообщения
Вы не можете редактировать свои сообщения
Вы не можете удалять свои сообщения
Вы не можете голосовать в опросах
Вы не можете прикреплять файлы к сообщениям
Вы не можете скачивать файлы