Неслабый пол / The Opposite Sex (2014) HDRip | D | iTunes

 
Автор Сообщение

достали все ®

Пол:

Стаж: 1 год 8 месяцев

Сообщений: 6545



Награды: 12 (Подробнее)

Top Releaser 2 (Количество: 1) Mega Seeder 1 (Количество: 1) Mega Releaser 1 (Количество: 1)
Торрент-статистика

Создавать темы 13-Июн-2016 05:47

[Цитировать]

Неслабый пол / The Opposite Sex
Страна: США
Производство: Magna Entertainment, Verdi Productions
Год выпуска: 2014
Жанр: комедия
Продолжительность: 01:37:00
Режиссеры: Дженнифер Финниган, Джонатан Силвермен
Авторы сценария: Марк Массина, Стивен Сессионс
В ролях: Мена Сувари, Джофф Стульц, Эрик Робертс, Кристин Ченоуэт, Джош Хопкинс, Кенан Томпсон, Дебра Джо Рапп, Джонатан Силвермен
Описание: Винс — адвокат, который привык выигрывать везде и всюду. Победитель по жизни, он меняет девушек, как перчатки. Успешный холостяк, для которого доступна любая девушка в баре… кроме Джейн. Знакомство со сногсшибательной блондинкой Джейн ставит жизнь Винса сног на голову. И теперь главная его цель — заполучить ее любой ценой. Но для этого придется играть по ее правилам...

Перевод: Профессиональный (полное дублирование) | iTunes
Субтитры: нет-Качество: HDRip
Формат: АVI
Видео кодек: XviD
Аудио кодек: АС3
Видео: 720x400 (16:9), 23.976 fps, XviD ~1 141 kbps avg
Аудио: 48 kHz, AC3 Dolby Digital, 3/2 (L,C,R,l,r) + LFE ch, ~384 kbps
Дата премьеры (мир): 22 октября 2014
Дата премьеры (РФ): 19 мая 2016, «Кинологистика»

Media Info

General
Format : AVI
Format/Info : Audio Video Interleave
Overall bit rate : 1 537 Kbps
Writing application : VirtualDubMod 1.5.10.2 (build 2540/release)
Writing library : VirtualDubMod build 2540/release
Video
ID : 0
Format : MPEG-4 Visual
Format profile : Advanced Simple@L5
Format settings, BVOP : 2
Format settings, QPel : No
Format settings, GMC : No warppoints
Format settings, Matrix : Default (MPEG)
Codec ID : XVID
Codec ID/Hint : XviD
Bit rate : 1 141 Kbps
Width : 720 pixels
Height : 400 pixels
Display aspect ratio : 16:9
Frame rate : 23.976 fps
Color space : YUV
Chroma subsampling : 4:2:0
Bit depth : 8 bits
Scan type : Progressive
Compression mode : Lossy
Bits/(Pixel*Frame) : 0.165
Stream size : 4.41 MiB (74%)
Writing library : XviD 1.2.1 (UTC 2008-12-04)
Audio
ID : 1
Format : AC-3
Format/Info : Audio Coding 3
Mode extension : CM (complete main)
Format settings, Endianness : Big
Codec ID : 2000
Bit rate mode : Constant
Bit rate : 384 Kbps
Channel(s) : 6 channels
Channel positions : Front: L C R, Side: L R, LFE
Sampling rate : 48.0 KHz
Compression mode : Lossy
Stream size : 1.49 MiB (25%)
Alignment : Split accross interleaves
Interleave, duration : 42 ms (1.01 video frame)
Interleave, preload duration : 500 ms

Скриншоты

[Профиль] [ЛС]
Кто просматривает тему:

Форум Тема Автор Размер
Фильмы (HD Rips | 720p, 1080p) Неслабый пол / The Opposite Sex (2014) BDRip 720p | D | iTunes достали все 4.63 GB
Показать сообщения:    

Текущее время: Сегодня 20:41

Часовой пояс: GMT



Вы не можете начинать темы
Вы не можете отвечать на сообщения
Вы не можете редактировать свои сообщения
Вы не можете удалять свои сообщения
Вы не можете голосовать в опросах
Вы не можете прикреплять файлы к сообщениям
Вы не можете скачивать файлы