Несколько счастливцев / Happy Few / Four Lovers (Антони Кордье / Antony Cordier) [2010, Франция, мелодрама, DVDRip] MVO (Кинопоказ) + DVO (студия Элром) + Original Fre

 
Автор Сообщение

TorrentFilm ®

Пол:

Стаж: 2 года

Сообщений: 7741



Награды: Нет

Торрент-статистика

Создавать темы 03-Янв-2015 00:00

[Цитировать]

Несколько счастливцев / Happy Few / Four Lovers
Страна: Франция
Жанр: мелодрама
Год выпуска: 2010
Продолжительность: 01:40:15
Перевод: Профессиональный (многоголосый закадровый) Кинопоказ
Перевод 2: Профессиональный (двухголосый закадровый) студия Элром
Cубтитры: нет
Оригинальная аудиодорожка: французский
Режиссер: Антони Кордье / Antony Cordier
В ролях: Марина Фоис , Элоди Буше , Рошди Зем , Николя Дювошель , Жан-Франсуа Стевенен , Алексия Стреси , Бланш Гардин , Женевьев Мниш , Филипп Пеймбланк , Наоми Феррейра , Илона Калу , Фердинанд Леду
Описание: Эротическая мелодрама о двух парах, сошедшихся вместе и живущих "квартетом". Фильм о сложных отношениях, взаимной любви и об обязательно возникающих сложностях, когда чувства начинают переплёскиваться через край...
Сэмпл: http://multi-up.com/1023243
Качество видео: DVDRip
Формат видео: AVI
Видео: MPEG4, XviD, 720x384 (1.875), 25.000 fps, 2 261 Kbps (0.327 bit/pixel)
Аудио: AC-3, 48.0 KHz, 2 ch, 192 Kbps, CBR - Кинопоказ
Аудио 2: AC-3, 48.0 KHz, 2 ch, 192 Kbps, CBR - Элром
Аудио 3: AC-3, 48.0 KHz, 6 ch, 448 Kbps, CBR - французский

MediaInfo

Общее
Полное имя : K:\Несколько счастливцев.avi
Формат : AVI
Формат/Информация : Audio Video Interleave
Профиль формата : OpenDML
Размер файла : 2,18 Гбайт
Продолжительность : 1 ч. 40 м.
Общий поток : 3118 Кбит/сек
Название фильма : Несколько счастливцев / Happy Few / Four Lovers (2010)
Программа кодирования : VirtualDubMod 1.5.10.2 (build 2540/release)
Библиотека кодирования : VirtualDubMod build 2540/release
Правообладатель : miha2154
Видео
Идентификатор : 0
Формат : MPEG-4 Visual
Профиль формата : Advanced Simple@L5
Параметр BVOP формата : 1
Параметр QPel формата : Нет
Параметр GMC формата : Без точки перехода
Параметр матрицы формата : Выборочная
Идентификатор кодека : XVID
Идентификатор кодека/Подсказка : XviD
Продолжительность : 1 ч. 40 м.
Битрейт : 2261 Кбит/сек
Ширина : 720 пикселей
Высота : 384 пикселя
Соотношение сторон : 1,85:1
Частота кадров : 25,000 кадров/сек
Цветовое пространство : YUV
Субдискретизация насыщенности : 4:2:0
Битовая глубина : 8 бит
Тип развёртки : Прогрессивная
Метод сжатия : С потерями
Бит/(Пиксели*Кадры) : 0.327
Размер потока : 1,58 Гбайт (73%)
Библиотека кодирования : XviD 65
Аудио #1
Идентификатор : 1
Формат : AC-3
Формат/Информация : Audio Coding 3
Расширение режима : CM (complete main)
Параметр Endianness формата : Big
Идентификатор кодека : 2000
Продолжительность : 1 ч. 40 м.
Вид битрейта : Постоянный
Битрейт : 192 Кбит/сек
Каналы : 2 канала
Расположение каналов : Front: L R
Частота : 48,0 КГц
Битовая глубина : 16 бит
Метод сжатия : С потерями
Размер потока : 138 Мбайт (6%)
Выравнивание : Разделение по промежуткам
Продолжительность промежутка : 40 мс. (1,00 видеокадр)
Время предзагрузки промежутка : 500 мс.
Заголовок : Профессиональный (многоголосый закадровый) Кинопоказ
Аудио #2
Идентификатор : 2
Формат : AC-3
Формат/Информация : Audio Coding 3
Расширение режима : CM (complete main)
Параметр Endianness формата : Big
Идентификатор кодека : 2000
Продолжительность : 1 ч. 40 м.
Вид битрейта : Постоянный
Битрейт : 192 Кбит/сек
Каналы : 2 канала
Расположение каналов : Front: L R
Частота : 48,0 КГц
Битовая глубина : 16 бит
Метод сжатия : С потерями
Размер потока : 138 Мбайт (6%)
Выравнивание : Разделение по промежуткам
Продолжительность промежутка : 40 мс. (1,00 видеокадр)
Время предзагрузки промежутка : 500 мс.
Заголовок : Профессиональный (двухголосый закадровый) студия Elrom
Аудио #3
Идентификатор : 3
Формат : AC-3
Формат/Информация : Audio Coding 3
Расширение режима : CM (complete main)
Параметр Endianness формата : Big
Идентификатор кодека : 2000
Продолжительность : 1 ч. 40 м.
Вид битрейта : Постоянный
Битрейт : 448 Кбит/сек
Каналы : 6 каналов
Расположение каналов : Front: L C R, Side: L R, LFE
Частота : 48,0 КГц
Битовая глубина : 16 бит
Метод сжатия : С потерями
Размер потока : 321 Мбайт (14%)
Выравнивание : Разделение по промежуткам
Продолжительность промежутка : 40 мс. (1,00 видеокадр)
Время предзагрузки промежутка : 500 мс.
Заголовок : Французский

Скриншоты

[Профиль] [ЛС]

Создавать темы 06-Авг-2015 22:50 (спустя 7 месяцев 3 дня)

Топик был перенесен из форума Фильмы до 2014 года в форум Фильмы до 2012 года
sergej644
 

Создавать темы 12-Июн-2016 07:54 (спустя 1 год 5 месяцев)

Топик был перенесен из форума Фильмы 2011 года в форум Фильмы 2010 года
Russian Mafia
 
Кто просматривает тему:

Форум Тема Автор Размер
Архитектура и строительство 365: Коллекция памятников ЮНЕСКО на территории Чешской республики / Národní klenoty: soubor Památek UNESCO na území České republiky [13 из 13] (Отто Каллус / Otto Kallus, Иржи Новак /Jiří Novák)... skorpionN 4.72 GB
Разная литература Каммарери, Митчел, Баландин, Джонсон, Тимаев, Киппхан, Трубникова и др. - Переплетное дело и реставрация + несколько книг по полиграфии (брошюровка-переплет) Garik014 1.61 GB
R.G.TorrentFilm Video Мясищев, несколько самолётов и вся жизнь (Александр Марутян) [2010 г., Документальный, авиация, история, биография, SATRip] Один 777 439 MB
Фильмы (HD Rips | 720p, 1080p) На несколько долларов больше / Per qualche dollaro in più (1965) BDRip-AVC от R.G. HD-Films | 60 fps BOSS 3.93 GB
Фильмы (HD Rips | 720p, 1080p) Несколько дней из жизни И.И. Обломова (Никита Михалков) [1979, СССР, драма, мелодрама, комедия, BDRip 1080p] TorrentFilm 16.01 GB
Фильмы (HD DVD, Blu-ray и BDRemux) Несколько дней из жизни И.И. Обломова (Никита Михалков) [1979, СССР, драма, мелодрама, комедия, Blu-ray Disc 1080p] painkiller 30.57 GB
Фильмы (HD Rips | 720p, 1080p) Несколько дней со мной / Quelques jours avec moi (1988) BDRip 720p by msltel | P sergej644 6.39 GB
Фильмы (HD Rips | 720p, 1080p) Несколько хороших парней / A Few Good Men (1992) BDRip 720p sergej644 10.22 GB
Показать сообщения:    

Текущее время: Сегодня 02:15

Часовой пояс: GMT



Вы не можете начинать темы
Вы не можете отвечать на сообщения
Вы не можете редактировать свои сообщения
Вы не можете удалять свои сообщения
Вы не можете голосовать в опросах
Вы не можете прикреплять файлы к сообщениям
Вы не можете скачивать файлы