Несколько дней со мной / Quelques jours avec moi (1988) BDRip 720p by msltel | P

 
Автор Сообщение

sergej644 ®

Пол:

Стаж: 4 года 11 месяцев

Сообщений: 6046

Откуда: Soviet Union



Награды: Нет

Торрент-статистика

Создавать темы 14-Фев-2015 00:07

[Цитировать]

Год выпуска: 1988
Страна: Франция
Жанр: драма, мелодрама, комедия
Продолжительность: 02:08:34
Перевод: профессиональный многоголосый
Субтитры: нет
Режиссёр: Клод Соте
В ролях: Даниель Отой, Сандрин Боннэр, Жан-Пьер Марьель, Доминик Лаванан, Даниэль Даррьё, Венсан Линдон, Тереза Лиотар, Жерар Исмаэль, Таня Лопер, Филипп Лоденбаш
Описание: Навещая с инспекцией Лимож, президент сети супермаркетов страстно влюбляется в молодую девушку, которая работает помощницей менеджера в одном из отделов. Он просит её жить вместе с ним и, взамен, предлагает всё, о чём она когда-нибудь мечтала...

Качество: BDRip 720p
Формат: MKV
Видео кодек: H.264
Видео: 6593 Кбит/с, 1194x720, 24 кадра/с, 0.320 bpp
Аудио 1: русский, AC3, 192 kbps, 2 ch, 48 kHz [профессиональный многоголосый]
Аудио 2: французский, AC3, 192 kbps, 2 ch, 48 kHz [оригинал]
Имеются неименованные главы/чаптеры.

Награды

Сезар, 1989 год
Номинации (3):
Лучший актер (Даниель Отой)
Лучший актер второго плана (Жан-Пьер Марьель)
Лучшая актриса второго плана (Доминик Лаванан)

MediaInfo

Общее
Уникальный идентификатор : 254606573234124689465746611717087552093 (0xBF8B713D63168FA5828B60E92B69E25D)
Полное имя : D:VideoNeskolko dnej so mnoj.1988.BDRip.720p.mkv
Формат : Matroska
Версия формата : Version 4 / Version 2
Размер файла : 6,39 Гбайт
Продолжительность : 2 ч. 8 м.
Общий поток : 7118 Кбит/сек
Дата кодирования : UTC 2015-02-09 09:31:58
Программа кодирования : mkvmerge v7.5.0 ('Glass Culture') 64bit built on Jan 4 2015 16:48:44
Библиотека кодирования : libebml v1.3.1 + libmatroska v1.4.2
DURATION : 02:08:33.984000000
NUMBER_OF_FRAMES : 241062
NUMBER_OF_BYTES : 185135616
_STATISTICS_WRITING_APP : mkvmerge v7.5.0 ('Glass Culture') 64bit built on Jan 4 2015 16:48:44
_STATISTICS_WRITING_DATE_UTC : 2015-02-09 09:31:58
_STATISTICS_TAGS : BPS DURATION NUMBER_OF_FRAMES NUMBER_OF_BYTES
Видео
Идентификатор : 1
Формат : AVC
Формат/Информация : Advanced Video Codec
Профиль формата : High@L4.1
Параметр CABAC формата : Да
Параметр ReFrames формата : 9 кадров
Идентификатор кодека : V_MPEG4/ISO/AVC
Продолжительность : 2 ч. 8 м.
Битрейт : 6593 Кбит/сек
Ширина : 1194 пикселя
Высота : 720 пикселей
Соотношение сторон : 1,658
Режим частоты кадров : Постоянный
Частота кадров : 24,000 кадра/сек
Цветовое пространство : YUV
Субдискретизация насыщенности : 4:2:0
Битовая глубина : 8 бит
Тип развёртки : Прогрессивная
Бит/(Пиксели*Кадры) : 0.320
Размер потока : 5,92 Гбайт (93%)
Заголовок : BDRip -- STarankov
Библиотека кодирования : x264 core 142 r2431 ac76440
Настройки программы : cabac=1 / ref=9 / deblock=1:-1:-1 / analyse=0x3:0x113 / me=umh / subme=10 / psy=1 / psy_rd=1.00:0.15 / mixed_ref=1 / me_range=32 / chroma_me=1 / trellis=2 / 8x8dct=1 / cqm=0 / deadzone=21,11 / fast_pskip=1 / chroma_qp_offset=-3 / threads=6 / lookahead_threads=1 / sliced_threads=0 / nr=0 / decimate=1 / interlaced=0 / bluray_compat=0 / constrained_intra=0 / bframes=8 / b_pyramid=2 / b_adapt=2 / b_bias=0 / direct=3 / weightb=1 / open_gop=0 / weightp=2 / keyint=230 / keyint_min=23 / scenecut=40 / intra_refresh=0 / rc_lookahead=40 / rc=crf / mbtree=0 / crf=19.0 / qcomp=0.60 / qpmin=0 / qpmax=69 / qpstep=4 / vbv_maxrate=40000 / vbv_bufsize=50000 / crf_max=0.0 / nal_hrd=none / filler=0 / ip_ratio=1.40 / pb_ratio=1.30 / aq=1:1.00
Язык : French
Default : Да
Forced : Нет
DURATION : 02:08:33.959000000
NUMBER_OF_FRAMES : 185135
NUMBER_OF_BYTES : 6491604136
_STATISTICS_WRITING_APP : mkvmerge v7.5.0 ('Glass Culture') 64bit built on Jan 4 2015 16:48:44
_STATISTICS_WRITING_DATE_UTC : 2015-02-09 09:31:58
_STATISTICS_TAGS : BPS DURATION NUMBER_OF_FRAMES NUMBER_OF_BYTES
Аудио #1
Идентификатор : 2
Формат : AC-3
Формат/Информация : Audio Coding 3
Расширение режима : CM (complete main)
Параметр Endianness формата : Big
Идентификатор кодека : A_AC3
Продолжительность : 2 ч. 8 м.
Вид битрейта : Постоянный
Битрейт : 192 Кбит/сек
Каналы : 2 канала
Расположение каналов : Front: L R
Частота : 48,0 КГц
Битовая глубина : 16 бит
Метод сжатия : С потерями
Размер потока : 177 Мбайт (3%)
Заголовок : MVO
Язык : Russian
Default : Да
Forced : Нет
Аудио #2
Идентификатор : 3
Формат : AC-3
Формат/Информация : Audio Coding 3
Расширение режима : CM (complete main)
Параметр Endianness формата : Big
Идентификатор кодека : A_AC3
Продолжительность : 2 ч. 8 м.
Вид битрейта : Постоянный
Битрейт : 192 Кбит/сек
Каналы : 2 канала
Расположение каналов : Front: L R
Частота : 48,0 КГц
Битовая глубина : 16 бит
Метод сжатия : С потерями
Размер потока : 177 Мбайт (3%)
Заголовок : Original
Язык : French
Default : Нет
Forced : Нет
Меню
00:00:00.000 : :Chapter 01
00:09:14.375 : :Chapter 02
00:16:11.000 : :Chapter 03
00:24:26.083 : :Chapter 04
00:39:38.916 : :Chapter 05
00:53:59.583 : :Chapter 06
01:08:03.875 : :Chapter 07
01:18:45.707 : :Chapter 08
01:27:21.875 : :Chapter 09
01:39:59.583 : :Chapter 10
01:52:55.125 : :Chapter 11
02:04:37.208 : :Chapter 12

Скриншоты

[Профиль] [ЛС]
Кто просматривает тему:

Форум Тема Автор Размер
Архитектура и строительство 365: Коллекция памятников ЮНЕСКО на территории Чешской республики / Národní klenoty: soubor Památek UNESCO na území České republiky [13 из 13] (Отто Каллус / Otto Kallus, Иржи Новак /Jiří Novák)... skorpionN 4.72 GB
Разная литература Каммарери, Митчел, Баландин, Джонсон, Тимаев, Киппхан, Трубникова и др. - Переплетное дело и реставрация + несколько книг по полиграфии (брошюровка-переплет) Garik014 1.61 GB
R.G.TorrentFilm Video Мясищев, несколько самолётов и вся жизнь (Александр Марутян) [2010 г., Документальный, авиация, история, биография, SATRip] Один 777 439 MB
Фильмы (HD Rips | 720p, 1080p) На несколько долларов больше / Per qualche dollaro in più (1965) BDRip-AVC от R.G. HD-Films | 60 fps BOSS 3.93 GB
Фильмы (HD Rips | 720p, 1080p) Несколько дней из жизни И.И. Обломова (Никита Михалков) [1979, СССР, драма, мелодрама, комедия, BDRip 1080p] TorrentFilm 16.01 GB
Фильмы (HD DVD, Blu-ray и BDRemux) Несколько дней из жизни И.И. Обломова (Никита Михалков) [1979, СССР, драма, мелодрама, комедия, Blu-ray Disc 1080p] painkiller 30.57 GB
Фильмы 2010 года Несколько счастливцев / Happy Few / Four Lovers (Антони Кордье / Antony Cordier) [2010, Франция, мелодрама, DVDRip] MVO (Кинопоказ) + DVO (студия Элром) + Original Fre TorrentFilm 2.18 GB
Фильмы (HD Rips | 720p, 1080p) Несколько хороших парней / A Few Good Men (1992) BDRip 720p sergej644 10.22 GB
Показать сообщения:    

Текущее время: Сегодня 15:44

Часовой пояс: GMT



Вы не можете начинать темы
Вы не можете отвечать на сообщения
Вы не можете редактировать свои сообщения
Вы не можете удалять свои сообщения
Вы не можете голосовать в опросах
Вы не можете прикреплять файлы к сообщениям
Вы не можете скачивать файлы