Нерожденный / The Unborn (Дэвид С. Гойер / David S. Goyer) [2009, США, ужасы, триллер, драма, детектив, BDRip] [UNRATED] Dub + Sub (Rus, Eng) + Original Eng

 
Автор Сообщение

TorrentFilm ®

Пол:

Стаж: 2 года

Сообщений: 7741



Награды: Нет

Торрент-статистика

Создавать темы 15-Апр-2015 00:03

[Цитировать]

Нерожденный / The Unborn-«Зло хочет родиться...сейчас»
-Страна: США
Жанр: Ужасы, триллер, драма, детектив
Год выпуска: 2009
Версия: UNRATED
Продолжительность: 01:28:44-Перевод: Профессиональный (полное дублирование)
Cубтитры: русские (Отдельно)
Оригинальная аудиодорожка: английский (Отдельно)-Режиссер: Дэвид С. Гойер / David S. Goyer-В ролях: Одетт Юстман /Odette Yustman/, Гари Олдман /Gary Oldman/, Миган Гуд /Meagan Good/, Кэм Жиганде /Cam Gigandet/, Идрис Эльба /Idris Elba/, Джейн Александр /Jane Alexander/, Джеймс Римар /James Remar/, Карла Гуджино /Carla Gugino/, Аттикус Шаффер /Atticus Shaffer/, К.С. Ли /C.S. Lee/, Риз Койро /Rhys Coiro/, Майкл Сэссон /Michael Sassone/, Итан Каткоски /Ethan Cutkosky/, Рэйчел Броснахэн /Rachel Brosnahan/, Кимберли Меллен /Kymberly Mellen/, Брайан Боланд /Brian Boland/-Описание: Кейси Белл ненавидела свою мать за то, что та ее бросила. Но, когда начинает твориться необъяснимое, Кейси понимает, почему мама ушла. Измученная кошмарами и присутствием злого духа, она обращается к единственному человеку, который, возможно, способен ее спасти — опытному советчику по спиритуальным вопросам, а также известному экзорцисту по имени Сендак.-Доп. информация:

Релиз: Автор рипа: MECHANICAL ENGINEER-Качество видео: BDRip (BD-Remux)
Формат видео: AVI
Видео: 720 x 304; 23.976 fps; 1891 kbps; 0.36 bit/pixel
Аудио: 48 kHz; 6 ch; 448.00 kbps; AC3 Dolby Digital
Размер файла: 1491.10 Mb (1/3 DVD5)
Аудио 2: 48 kHz; 6 ch; 448.00 kbps; AC3 Dolby Digital | Английский | отдельно
Формат субтитров: softsub (SRT) : Русские, Английские. | отдельно

MediaInfo

Format                           : AVI
Format/Info                      : Audio Video Interleave
File size                        : 1.46 GiB
Duration                         : 1h 28mn
Overall bit rate                 : 2 349 Kbps
Movie name                       : Нерожденный / The Unborn (2009) [UNRATED]
Director                         : MECHANICAL ENGINEER (BD-Remux)
Writing application              : VirtualDubMod 1.5.10.3 | www.virtualdub-fr.org || (build 2550/release)
Copyright                        : HQ-ViDEO
Comment                          : 06.04.2015
Video
ID                               : 0
Format                           : MPEG-4 Visual
Format profile                   : Advanced Simple@L5
Format settings, BVOP            : Yes
Format settings, QPel            : No
Format settings, GMC             : No warppoints
Format settings, Matrix          : Custom
Codec ID                         : XVID
Codec ID/Hint                    : XviD
Duration                         : 1h 28mn
Bit rate                         : 1 892 Kbps
Width                            : 720 pixels
Height                           : 304 pixels
Display aspect ratio             : 2.35:1
Frame rate                       : 23.976 fps
Color space                      : YUV
Chroma subsampling               : 4:2:0
Bit depth                        : 8 bits
Scan type                        : Progressive
Bits/(Pixel*Frame)               : 0.361
Stream size                      : 1.17 GiB (81%)
Writing library                  : XviD 65
Audio
ID                               : 1
Format                           : AC-3
Format/Info                      : Audio Coding 3
Mode extension                   : CM (complete main)
Codec ID                         : 2000
Duration                         : 1h 28mn
Bit rate mode                    : Constant
Bit rate                         : 448 Kbps
Channel(s)                       : 6 channels
Channel positions                : Front: L C R, Side: L R, LFE
Sampling rate                    : 48.0 KHz
Bit depth                        : 16 bits
Stream size                      : 284 MiB (19%)
Alignment                        : Split accross interleaves
Interleave, duration             : 42 ms (1.00 video frame)
Interleave, preload duration     : 500 ms

Скриншоты для оценки качества (превью - увеличение по клику):


ПРИЯТНОГО ПРОСМОТРА!
[Профиль] [ЛС]

Создавать темы 06-Авг-2015 22:37 (спустя 3 месяца 21 день)

Топик был перенесен из форума Фильмы до 2014 года в форум Фильмы до 2012 года
sergej644
 

Создавать темы 12-Июн-2016 08:49 (спустя 1 год 1 месяц)

Топик был перенесен из форума Фильмы 2011 года в форум Фильмы 2009 года
Russian Mafia
 
Показать сообщения:    

Текущее время: Сегодня 08:03

Часовой пояс: GMT



Вы не можете начинать темы
Вы не можете отвечать на сообщения
Вы не можете редактировать свои сообщения
Вы не можете удалять свои сообщения
Вы не можете голосовать в опросах
Вы не можете прикреплять файлы к сообщениям
Вы не можете скачивать файлы