Нерассказанная история США / The Untold History of the United States (Оливер Стоун / Oliver Stone) / серии 1-4 из 10 + предисловие / [2014, документальный, HDTVRip 720p]

 
Автор Сообщение

TorrentFilm ®

Пол:

Стаж: 2 года

Сообщений: 7741



Награды: Нет

Торрент-статистика

Создавать темы 19-Дек-2014 02:00

[Цитировать]

Нерассказанная история США / The Untold History of the United States
Год выпуска: 2014
Страна: США
Производство: Showtime
Жанр: документальный
Продолжительность: ~00:58:00 x 10
Перевод: профессиональный (одноголосый)
Режиссер: Оливер Стоун / Oliver Stone
Описание:
Десятисерийный фильм Оливера Стоуна "Нерассказанная история США" поднимает завесу над многими тайнами американской истории.
Оливер Стоун, американский кинорежиссер, обладатель множества кинопремий, в том числе трех "Оскаров", считает, что понятие американской исключительности прочно завладело умами американцев. Большинство при этом никогда не признают, что у США есть имперские замашки. Однако история говорит о другом.
Атомные бомбежки Хиросимы и Нагасаки, главная роль в развязывании холодной войны, финансирование исламских фундаменталистов ради борьбы с СССР и их союзниками, нарушение президентами США Конституции своей страны – эти и многие другие примеры неуклонно свидетельствуют о том, что исторические факты часто толкуются так, как это выгодно американским политикам. Есть ли у Америки возможность измениться? На этот вопрос пытаются ответить авторы фильма.
Стоун — обладатель трех «Оскаров». Он дважды был награжден за лучшую режиссерскую работу (в 1987 году получил статуэтку за «Взвод», а в 1990 — за «Рожденного четвертого июля») и один раз за лучший адаптированный сценарий («Полуночный экспресс» в 1979 году).
Эпизоды:
01. Вторая мировая война
02. Рузвельт, Трумэн и Уоллес
03. Бомба
04. Холодная война 1945-1950 годов
05. 50-е годы. Эйзенхауэр, бомба и страны третьего мира
06. Дж. Ф. Кеннеди - на грани
также в раздаче присутствует "предисловие" - Оливер Стоун в программе Познер (10.11.2014)
Качество: HDTVRip
Формат: MKV
Видео: AVC, 1280х720 (16:9), ~3300 Kbps, 25.000 fps
Аудио: AC-3, 384 Kbps, 48.0 KHz, 6 ch

Скриншоты

Сэмпл

MediaInfo

Формат : MatroskaВерсия формата : Version 2Размер файла : 1,28 ГбайтПродолжительность : 57 м.Общий поток : 3184 Кбит/секДата кодирования : UTC 2014-11-18 18:42:03Программа кодирования : mkvmerge v5.3.0 ('I could have danced') built on Feb 9 2012 10:38:07Библиотека кодирования : libebml v1.2.3 + libmatroska v1.3.0
ВидеоИдентификатор : 1Формат : AVCФормат/Информация : Advanced Video CodecПрофиль формата : High@L4.1Параметр CABAC формата : ДаПараметр ReFrames формата : 6 кадровИдентификатор кодека : V_MPEG4/ISO/AVCПродолжительность : 57 м.Битрейт : 2737 Кбит/секШирина : 1280 пикс.Высота : 720 пикс.Соотношение сторон : 16:9Частота кадров : 25,000 кадр/секЦветовое пространство : YUVПодвыборка цветности : 4:2:0Битовая глубина : 8 битТип развёртки : ПрогрессивнаяБит/(Пиксели*Кадры) : 0.119Размер потока : 1,10 Гбайт (86%)Заголовок : The Untold History of the United States [HDTVRip by Sleeping Dragon]Библиотека кодирования : x264 core 142 r2431 ac76440Настройки программы : cabac=1 / ref=6 / deblock=1:-3:-3 / analyse=0x3:0x113 / me=umh / subme=9 / psy=1 / psy_rd=1.00:0.00 / mixed_ref=1 / me_range=32 / chroma_me=1 / trellis=2 / 8x8dct=1 / cqm=0 / deadzone=21,11 / fast_pskip=0 / chroma_qp_offset=-2 / threads=6 / lookahead_threads=1 / sliced_threads=0 / nr=0 / decimate=0 / interlaced=0 / bluray_compat=0 / constrained_intra=0 / bframes=6 / b_pyramid=2 / b_adapt=2 / b_bias=0 / direct=3 / weightb=1 / open_gop=0 / weightp=2 / keyint=250 / keyint_min=25 / scenecut=40 / intra_refresh=0 / rc=crf / mbtree=0 / crf=21.0 / qcomp=0.60 / qpmin=0 / qpmax=60 / qpstep=4 / ip_ratio=1.30 / pb_ratio=1.30 / aq=1:0.80Язык : EnglishОсновные цвета : BT.709-5, BT.1361, IEC 61966-2-4, SMPTE RP177Характеристики трансфера : BT.709-5, BT.1361Коэффициенты матрицы : BT.709-5, BT.1361, IEC 61966-2-4 709, SMPTE RP177
АудиоИдентификатор : 2Формат : AC-3Формат/Информация : Audio Coding 3Расширение режима : CM (complete main)Идентификатор кодека : A_AC3Продолжительность : 57 м.Вид битрейта : ПостоянныйБитрейт : 384 Кбит/секКаналы : 6 каналовРасположение каналов : Front: L C R, Side: L R, LFEЧастота : 48,0 КГцБитовая глубина : 16 битМетод сжатия : С потерямиЗадержка видео : 266 мс.Размер потока : 158 Мбайт (12%)

FAQ по просмотру MKV/h.264/AAC

Релиз группы:
Матюки, благодарности, а также конструктивное обсуждение раздачи способствует ее долгожительству и вдохновляет автора на создание новых.
[Профиль] [ЛС]
Показать сообщения:    

Текущее время: Сегодня 04:47

Часовой пояс: GMT



Вы не можете начинать темы
Вы не можете отвечать на сообщения
Вы не можете редактировать свои сообщения
Вы не можете удалять свои сообщения
Вы не можете голосовать в опросах
Вы не можете прикреплять файлы к сообщениям
Вы не можете скачивать файлы