Нерассказанная история США / The Untold History of the United States (Оливер Стоун / Oliver Stone) (1-5 серии из 10) [2013, Документалистика, HDTV 1080i]

 
Автор Сообщение

TorrentFilm ®

Пол:

Стаж: 2 года

Сообщений: 7741



Награды: Нет

Торрент-статистика

Создавать темы 19-Дек-2014 02:00

[Цитировать]

Нерассказанная история США / The Untold History of the United States
Год выпуска: 2013
Страна: США
Студия: Showtime
Жанр: Документалистика
Продолжительность: Каждая серия ~57 мин
Перевод: Студийный (одноголосый закадровый)
Режиссер: Оливер Стоун / Oliver Stone
Описание: Фильм о новейшей истории США.
Доп. информация: Запись 1 канал HD. Реклама вырезана.
Тип релиза: HDTV 1080i
Контейнер: MKV
Видео: AVC, 1920х1080, 16:9, 10,5 Мбит/сек, 25 fps
Аудио: AC3, 192 kбит/сек, 48 кГц, стерео

MediaInfo 1 серия

ОбщееУникальный идентификатор : 136237765895926583323720344933771955958 (0x667E7075477888CEB162C66F7CC6CEF6)Полное имя : H:\Video\Нерассказанная история США\Нерассказанная история США часть 1.mkvФормат : MatroskaВерсия формата : Version 2Размер файла : 4,34 ГбайтПродолжительность : 57 м.Общий поток : 10,7 Мбит/секПрограмма кодирования : Lavf52.64.2Библиотека кодирования : Lavf52.64.2
ВидеоИдентификатор : 1Формат : AVCФормат/Информация : Advanced Video CodecПрофиль формата : High@L4.0Параметр CABAC формата : ДаПараметр ReFrames формата : 4 кадраИдентификатор кодека : V_MPEG4/ISO/AVCПродолжительность : 57 м.Битрейт : 10,3 Мбит/секШирина : 1920 пикселейВысота : 1080 пикселейСоотношение сторон : 16:9Режим частоты кадров : ПостоянныйЧастота кадров : 25,000 кадров/секСтандарт вещания : ComponentЦветовое пространство : YUVСубдискретизация насыщенности : 4:2:0Битовая глубина : 8 битТип развёртки : ЧересстрочнаяПорядок развёртки : Верхнее поле первоеБит/(Пиксели*Кадры) : 0.199Размер потока : 4,18 Гбайт (96%)Default : ДаForced : НетОсновные цвета : BT.709Характеристики трансфера : BT.709Коэффициенты матрицы : BT.709
АудиоИдентификатор : 2Формат : AC-3Формат/Информация : Audio Coding 3Расширение режима : CM (complete main)Параметр Endianness формата : BigИдентификатор кодека : A_AC3Продолжительность : 57 м.Вид битрейта : ПостоянныйБитрейт : 192 Кбит/секКаналы : 2 каналаРасположение каналов : Front: L RЧастота : 48,0 КГцБитовая глубина : 16 битМетод сжатия : С потерямиРазмер потока : 79,6 Мбайт (2%)Default : ДаForced : Нет

MediaInfo 2 серия

ОбщееУникальный идентификатор : 240783212485640465904757601897671284241 (0xB52528EF6A45E6E6118037C2F99BD611)Полное имя : H:\Video\Нерассказанная история США\Нерассказанная история США часть 2.mkvФормат : MatroskaВерсия формата : Version 2Размер файла : 3,61 ГбайтПродолжительность : 57 м.Общий поток : 8977 Кбит/секПрограмма кодирования : Lavf52.64.2Библиотека кодирования : Lavf52.64.2
ВидеоИдентификатор : 1Формат : AVCФормат/Информация : Advanced Video CodecПрофиль формата : High@L4.0Параметр CABAC формата : ДаПараметр ReFrames формата : 4 кадраИдентификатор кодека : V_MPEG4/ISO/AVCПродолжительность : 57 м.Битрейт : 8607 Кбит/секШирина : 1920 пикселейВысота : 1080 пикселейСоотношение сторон : 16:9Режим частоты кадров : ПостоянныйЧастота кадров : 25,000 кадров/секСтандарт вещания : ComponentЦветовое пространство : YUVСубдискретизация насыщенности : 4:2:0Битовая глубина : 8 битТип развёртки : ЧересстрочнаяПорядок развёртки : Верхнее поле первоеБит/(Пиксели*Кадры) : 0.166Размер потока : 3,46 Гбайт (96%)Default : ДаForced : НетОсновные цвета : BT.709Характеристики трансфера : BT.709Коэффициенты матрицы : BT.709
АудиоИдентификатор : 2Формат : AC-3Формат/Информация : Audio Coding 3Расширение режима : CM (complete main)Параметр Endianness формата : BigИдентификатор кодека : A_AC3Продолжительность : 57 м.Вид битрейта : ПостоянныйБитрейт : 192 Кбит/секКаналы : 2 каналаРасположение каналов : Front: L RЧастота : 48,0 КГцБитовая глубина : 16 битМетод сжатия : С потерямиРазмер потока : 79,1 Мбайт (2%)Язык : RussianDefault : ДаForced : Нет

MediaInfo 3 серия

ОбщееУникальный идентификатор : 260358538800317851810384574083667031968 (0xC3DF3B0999C224D01F586065FC1377A0)Полное имя : H:\Video\Нерассказанная история США\Нерассказанная история США часть 3.mkvФормат : MatroskaВерсия формата : Version 2Размер файла : 4,19 ГбайтПродолжительность : 57 м.Общий поток : 10,4 Мбит/секПрограмма кодирования : Lavf52.64.2Библиотека кодирования : Lavf52.64.2
ВидеоИдентификатор : 1Формат : AVCФормат/Информация : Advanced Video CodecПрофиль формата : High@L4.0Параметр CABAC формата : ДаПараметр ReFrames формата : 4 кадраИдентификатор кодека : V_MPEG4/ISO/AVCПродолжительность : 57 м.Битрейт : 10,0 Мбит/секШирина : 1920 пикселейВысота : 1080 пикселейСоотношение сторон : 16:9Режим частоты кадров : ПостоянныйЧастота кадров : 25,000 кадров/секСтандарт вещания : ComponentЦветовое пространство : YUVСубдискретизация насыщенности : 4:2:0Битовая глубина : 8 битТип развёртки : ЧересстрочнаяПорядок развёртки : Верхнее поле первоеБит/(Пиксели*Кадры) : 0.193Размер потока : 4,03 Гбайт (96%)Default : ДаForced : НетОсновные цвета : BT.709Характеристики трансфера : BT.709Коэффициенты матрицы : BT.709
АудиоИдентификатор : 2Формат : AC-3Формат/Информация : Audio Coding 3Расширение режима : CM (complete main)Параметр Endianness формата : BigИдентификатор кодека : A_AC3Продолжительность : 57 м.Вид битрейта : ПостоянныйБитрейт : 192 Кбит/секКаналы : 2 каналаРасположение каналов : Front: L RЧастота : 48,0 КГцБитовая глубина : 16 битМетод сжатия : С потерямиРазмер потока : 79,0 Мбайт (2%)Язык : RussianDefault : ДаForced : Нет

MediaInfo 4 серия

ОбщееУникальный идентификатор : 47623459766249303317624380523677514167 (0x23D3F1D94B9C911F7CBB861685AC79B7)Полное имя : H:\Video\Нерассказанная история США\Нерассказанная история США часть 4.mkvФормат : MatroskaВерсия формата : Version 2Размер файла : 4,12 ГбайтПродолжительность : 57 м.Общий поток : 10,3 Мбит/секПрограмма кодирования : Lavf52.64.2Библиотека кодирования : Lavf52.64.2
ВидеоИдентификатор : 1Формат : AVCФормат/Информация : Advanced Video CodecПрофиль формата : High@L4.0Параметр CABAC формата : ДаПараметр ReFrames формата : 4 кадраИдентификатор кодека : V_MPEG4/ISO/AVCПродолжительность : 57 м.Битрейт : 9914 Кбит/секШирина : 1920 пикселейВысота : 1080 пикселейСоотношение сторон : 16:9Режим частоты кадров : ПостоянныйЧастота кадров : 25,000 кадров/секСтандарт вещания : ComponentЦветовое пространство : YUVСубдискретизация насыщенности : 4:2:0Битовая глубина : 8 битТип развёртки : ЧересстрочнаяПорядок развёртки : Верхнее поле первоеБит/(Пиксели*Кадры) : 0.191Размер потока : 3,97 Гбайт (96%)Default : ДаForced : НетОсновные цвета : BT.709Характеристики трансфера : BT.709Коэффициенты матрицы : BT.709colour_range : Limited
АудиоИдентификатор : 2Формат : AC-3Формат/Информация : Audio Coding 3Расширение режима : CM (complete main)Параметр Endianness формата : BigИдентификатор кодека : A_AC3Продолжительность : 57 м.Вид битрейта : ПостоянныйБитрейт : 192 Кбит/секКаналы : 2 каналаРасположение каналов : Front: L RЧастота : 48,0 КГцБитовая глубина : 16 битМетод сжатия : С потерямиРазмер потока : 78,6 Мбайт (2%)Default : ДаForced : Нет

MediaInfo 5 серия

ОбщееУникальный идентификатор : 27248799414777277422243635623689948097 (0x147FED8929120CE4BC1FAAC97FA38BC1)Полное имя : H:\Video\Нерассказанная история США\Нерассказанная история США часть 5.mkvФормат : MatroskaВерсия формата : Version 2Размер файла : 4,04 ГбайтПродолжительность : 57 м.Общий поток : 10,1 Мбит/секПрограмма кодирования : Lavf52.64.2Библиотека кодирования : Lavf52.64.2
ВидеоИдентификатор : 1Формат : AVCФормат/Информация : Advanced Video CodecПрофиль формата : High@L4.0Параметр CABAC формата : ДаПараметр ReFrames формата : 4 кадраИдентификатор кодека : V_MPEG4/ISO/AVCПродолжительность : 57 м.Битрейт : 9668 Кбит/секШирина : 1920 пикселейВысота : 1080 пикселейСоотношение сторон : 16:9Режим частоты кадров : ПостоянныйЧастота кадров : 25,000 кадров/секСтандарт вещания : ComponentЦветовое пространство : YUVСубдискретизация насыщенности : 4:2:0Битовая глубина : 8 битТип развёртки : ЧересстрочнаяПорядок развёртки : Верхнее поле первоеБит/(Пиксели*Кадры) : 0.186Размер потока : 3,88 Гбайт (96%)Default : ДаForced : НетОсновные цвета : BT.709Характеристики трансфера : BT.709Коэффициенты матрицы : BT.709colour_range : Limited
АудиоИдентификатор : 2Формат : AC-3Формат/Информация : Audio Coding 3Расширение режима : CM (complete main)Параметр Endianness формата : BigИдентификатор кодека : A_AC3Продолжительность : 57 м.Вид битрейта : ПостоянныйБитрейт : 192 Кбит/секКаналы : 2 каналаРасположение каналов : Front: L RЧастота : 48,0 КГцБитовая глубина : 16 битМетод сжатия : С потерямиРазмер потока : 78,9 Мбайт (2%)Default : ДаForced : Нет

MediaInfo 6 серия

ОбщееУникальный идентификатор : 130981167257636393355131300108933528392 (0x628A0E22B75A3E70D8C14B67673FFB48)Полное имя : H:\Video\Нерассказанная история США\Нерассказанная история США часть 6.mkvФормат : MatroskaВерсия формата : Version 2Размер файла : 3,69 ГбайтПродолжительность : 57 м.Общий поток : 9217 Кбит/секПрограмма кодирования : Lavf52.64.2Библиотека кодирования : Lavf52.64.2
ВидеоИдентификатор : 1Формат : AVCФормат/Информация : Advanced Video CodecПрофиль формата : High@L4.0Параметр CABAC формата : ДаПараметр ReFrames формата : 4 кадраИдентификатор кодека : V_MPEG4/ISO/AVCПродолжительность : 57 м.Битрейт : 8842 Кбит/секШирина : 1920 пикселейВысота : 1080 пикселейСоотношение сторон : 16:9Режим частоты кадров : ПостоянныйЧастота кадров : 25,000 кадров/секСтандарт вещания : ComponentЦветовое пространство : YUVСубдискретизация насыщенности : 4:2:0Битовая глубина : 8 битТип развёртки : ЧересстрочнаяПорядок развёртки : Верхнее поле первоеБит/(Пиксели*Кадры) : 0.171Размер потока : 3,54 Гбайт (96%)Default : ДаForced : НетОсновные цвета : BT.709Характеристики трансфера : BT.709Коэффициенты матрицы : BT.709colour_range : Limited
АудиоИдентификатор : 2Формат : AC-3Формат/Информация : Audio Coding 3Расширение режима : CM (complete main)Параметр Endianness формата : BigИдентификатор кодека : A_AC3Продолжительность : 57 м.Вид битрейта : ПостоянныйБитрейт : 192 Кбит/секКаналы : 2 каналаРасположение каналов : Front: L RЧастота : 48,0 КГцБитовая глубина : 16 битМетод сжатия : С потерямиРазмер потока : 78,6 Мбайт (2%)Default : ДаForced : Нет

Скриншоты



[Профиль] [ЛС]
Показать сообщения:    

Текущее время: Сегодня 04:23

Часовой пояс: GMT



Вы не можете начинать темы
Вы не можете отвечать на сообщения
Вы не можете редактировать свои сообщения
Вы не можете удалять свои сообщения
Вы не можете голосовать в опросах
Вы не можете прикреплять файлы к сообщениям
Вы не можете скачивать файлы