Нерассказанная история Соединенных Штатов / The Untold History of the United States (Оливер Стоун / Oliver Stone) [2012, Документальный, BDRip 720p]

 
Автор Сообщение

TorrentFilm ®

Пол:

Стаж: 2 года

Сообщений: 7741



Награды: Нет

Торрент-статистика

Создавать темы 24-Май-2015 00:04

[Цитировать]

Нерассказанная история Соединенных Штатов / The Untold History of the United States
Год выпуска: 2012-2013
Страна: США
Студия: Warner Bros Entertainment
Жанр: Документальный
Продолжительность: 13:16:50
Перевод: Профессиональный (многоголосый закадровый)
Доп. инфо о переводе: Первый канал
Субтитры: Английские, Русские, Китайские
Режиссер: Оливер Стоун / Oliver Stone
Описание: Десятисерийный фильм Оливера Стоуна «Нерассказанная история США» поднимает завесу над многими тайнами американской истории. Оливер Стоун, американский кинорежиссер, обладатель множества кинопремий, в том числе трех «Оскаров», считает, что понятие американской исключительности прочно завладело умами американцев. Большинство при этом никогда не признают, что у США есть имперские замашки. Однако история говорит о другом. Атомные бомбежки Хиросимы и Нагасаки, главная роль в развязывании холодной войны, финансирование исламских фундаменталистов ради борьбы с СССР и их союзниками, нарушение президентами США Конституции своей страны – эти и многие другие примеры неуклонно свидетельствуют о том, что исторические факты часто толкуются так, как это выгодно американским политикам. Бонусы: Дополнительные 3 серии (эпизоды А, В и бонусная серия) не были показаны по Первому каналу, поэтому только английский язык озвучки.
Тип релиза: BDRip 720p
Контейнер: MKV
Видео: MPEG-4 AVC / H.264, 1280x720, ~5500 Kbps
Аудио 1: Английский / AC3, 6 ch (L C R, L R, LFE), 48 KHz, 640 kbps
Аудио 2: Русский / Первый канал, AC3, 2 ch (L R), 48 KHz, 192 kbps
Субтитры 1: hardsub (неотключаемые), Форсированные, Английские
Субтитры 2: Английские
Субтитры 3: Форсированные, Русские, Первый канал
Субтитры 4: Русские, Дори Медиа от ЛТД
Субтитры 5: Китайские, jlpzj.net
Субтитры 6: Китайские + Английские, jlpzj.net

Список эпизодов:

Chapter 1. World War Two / Эпизод 1. Вторая Мировая война
Chapter 2. Roosevelt, Truman and Wallace / Эпизод 2. Рузвельт, Трумэн и Уоллес
Chapter 3. The Bomb / Эпизод 3. Бомба
Chapter 4. The Cold War 1945-1950 / Эпизод 4. Холодная война 1945-1950
Chapter 5. The 50s: Eisenhower, the Bomb & the Third World / Эпизод 5. 50-е годы: Эйзенхауэр, бомба и страны третьего мира
Chapter 6. JFK: To The Brink / Эпизод 6. Дж.Ф. Кеннеди: На грани
Chapter 7. Johnson, Nixon & Vietnam: Reversal of Fortune / Эпизод 7. Джонсон, Никсон и Вьетнам: Колесо фортуны
Chapter 8. Reagan, Gorbachev & Third World: Rise of the Right / Эпизод 8. Рейган, Горбачев и страны третьего мира: Торжество правых
Chapter 9. Bush & Clinton: American Triumphalism - New World Order / Эпизод 9. Буш и Клинтон: Американское превосходство и новый мировой порядок
Chapter 10. Bush & Obama: Age of Terror / Эпизод 10. Буш и Обама: Эпоха ужаса
Episode A. World War I, The Russian Revolution & Woodrow Wilson / Эпизод A. Первая мировая война, Русская революция и Вудро Вильсон
Episode B. 1920-1940, Roosevelt, Hitler, Stalin: The Battle of Ideas / Эпизод B. Рузвельт, Гитлер, Сталин: Битва идей
Bonus Documentary. A Conversation with History: Tariq Ali And Oliver Stone / Дополнение. Разговор с историей: Тарик Али и Оливер Стоун

Mediainfo:Chapter 1. World War Two / Эпизод 1. Вторая Мировая война

Общее
Уникальный идентификатор : 234804160971317859116821323475276414295 (0xB0A5A2EF936E6B9B9752F96796BA3D57)
Полное имя : C:\The Untold History of the United States E01 (2012).AVC.720p.AC3x2.SUBx5.BDRip.mkv
Формат : Matroska
Версия формата : Version 4 / Version 2
Размер файла : 2,58 Гбайт
Продолжительность : 58 м.
Общий поток : 6319 Кбит/сек
Название фильма : Chapter 1. World War Two / Эпизод 1. Вторая Мировая война
Дата кодирования : UTC 2010-02-22 21:41:31
Программа кодирования : mkvmerge v5.9.0 ('On The Loose') built on Dec 9 2012 15:37:01
Библиотека кодирования : libebml v1.3.0 + libmatroska v1.4.0
Attachements : cover.jpg / small_cover.jpg / cover_land.jpg / small_cover_land.jpg
Видео
Идентификатор : 1
Формат : AVC
Формат/Информация : Advanced Video Codec
Профиль формата : High@L4.1
Параметр CABAC формата : Да
Параметр ReFrames формата : 9 кадров
Идентификатор кодека : V_MPEG4/ISO/AVC
Продолжительность : 58 м. 26 с.
Битрейт : 5480 Кбит/сек
Ширина : 1280 пикселей
Высота : 720 пикселей
Соотношение сторон : 16:9
Режим частоты кадров : Постоянный
Частота кадров : 29,970 кадров/сек
Цветовое пространство : YUV
Субдискретизация насыщенности : 4:2:0
Битовая глубина : 8 бит
Тип развёртки : Прогрессивная
Бит/(Пиксели*Кадры) : 0.198
Размер потока : 2,19 Гбайт (85%)
Заголовок : The Untold History of the United States (USA, 2012) / Нерассказанная история Соединенных Штатов (США, 2012)
Библиотека кодирования : x264 core 129 r2245+704+36 8e61944 tMod+MixAQ [8-bit@4:2:0 X86]
Настройки программы : cabac=1 / ref=9 / deblock=1:-1:-1 / analyse=0x3:0x133 / me=umh / subme=11 / psy=1 / fade_compensate=0.00 / psy_rd=1.05:0.10 / mixed_ref=1 / me_range=32 / chroma_me=1 / trellis=2 / 8x8dct=1 / cqm=0 / deadzone=21,11 / fast_pskip=0 / chroma_qp_offset=-3 / threads=18 / lookahead_threads=3 / sliced_threads=0 / nr=0 / decimate=0 / interlaced=0 / bluray_compat=0 / constrained_intra=0 / fgo=0 / bframes=8 / b_pyramid=2 / b_adapt=2 / b_bias=0 / direct=3 / weightb=1 / open_gop=0 / weightp=2 / keyint=250 / keyint_min=25 / scenecut=40 / intra_refresh=0 / rc_lookahead=50 / rc=2pass / mbtree=1 / bitrate=5480 / ratetol=1.0 / qcomp=0.70 / qpmin=0 / qpmax=69 / qpstep=4 / cplxblur=20.0 / qblur=0.5 / ip_ratio=1.40 / aq=3 / aq-strength=0.80 / aq-sensitivity=10.00 / aq-ifactor=1.00 / aq-pfactor=1.00 / aq-bfactor=1.00 / aq2=0
Язык : English
Default : Да
Forced : Нет
Аудио #1
Идентификатор : 2
Формат : AC-3
Формат/Информация : Audio Coding 3
Расширение режима : CM (complete main)
Параметр Endianness формата : Big
Идентификатор кодека : A_AC3
Продолжительность : 58 м. 26 с.
Вид битрейта : Постоянный
Битрейт : 640 Кбит/сек
Каналы : 6 каналов
Расположение каналов : Front: L C R, Side: L R, LFE
Частота : 48,0 КГц
Битовая глубина : 16 бит
Метод сжатия : С потерями
Размер потока : 267 Мбайт (10%)
Заголовок : Original / AC3, 6 ch, 640 Kbps
Язык : English
Default : Нет
Forced : Нет
Аудио #2
Идентификатор : 3
Формат : AC-3
Формат/Информация : Audio Coding 3
Расширение режима : CM (complete main)
Параметр Endianness формата : Big
Идентификатор кодека : A_AC3
Продолжительность : 58 м. 26 с.
Вид битрейта : Постоянный
Битрейт : 192 Кбит/сек
Каналы : 2 канала
Расположение каналов : Front: L R
Частота : 48,0 КГц
Битовая глубина : 16 бит
Метод сжатия : С потерями
Размер потока : 80,2 Мбайт (3%)
Заголовок : MVO, Channel One Russia / AC3, 2 ch, 192 Kbps
Язык : Russian
Default : Да
Forced : Нет
Текст #1
Идентификатор : 4
Формат : ASS
Идентификатор кодека : S_TEXT/ASS
Идентификатор кодека/Информация : Advanced Sub Station Alpha
Метод сжатия : Без потерь
Заголовок : English
Язык : English
Default : Нет
Forced : Нет
Текст #2
Идентификатор : 5
Формат : ASS
Идентификатор кодека : S_TEXT/ASS
Идентификатор кодека/Информация : Advanced Sub Station Alpha
Метод сжатия : Без потерь
Заголовок : Russian, forced
Язык : Russian
Default : Нет
Forced : Да
Текст #3
Идентификатор : 6
Формат : ASS
Идентификатор кодека : S_TEXT/ASS
Идентификатор кодека/Информация : Advanced Sub Station Alpha
Метод сжатия : Без потерь
Заголовок : Russian, Dori Media Ot Ltd.
Язык : Russian
Default : Нет
Forced : Нет
Текст #4
Идентификатор : 7
Формат : ASS
Идентификатор кодека : S_TEXT/ASS
Идентификатор кодека/Информация : Advanced Sub Station Alpha
Метод сжатия : Без потерь
Заголовок : Chinese, jlpzj.net
Язык : Chinese
Default : Нет
Forced : Нет
Текст #5
Идентификатор : 8
Формат : ASS
Идентификатор кодека : S_TEXT/ASS
Идентификатор кодека/Информация : Advanced Sub Station Alpha
Метод сжатия : Без потерь
Заголовок : Chinese + English, jlpzj.net
Язык : Chinese
Default : Нет
Forced : Нет

Chapter 2. Roosevelt, Truman and Wallace / Эпизод 2. Рузвельт, Трумэн и Уоллес

Общее
Уникальный идентификатор : 192830703888845332584999549048179489104 (0x9111D7B9FC8E93F7939A4F55C0F17950)
Полное имя : C:\The Untold History of the United States E02 (2012).AVC.720p.AC3x2.SUBx5.BDRip.mkv
Формат : Matroska
Версия формата : Version 4 / Version 2
Размер файла : 2,58 Гбайт
Продолжительность : 58 м. 9 с.
Общий поток : 6350 Кбит/сек
Название фильма : Chapter 2. Roosevelt, Truman and Wallace / Эпизод 2. Рузвельт, Трумэн и Уоллес
Дата кодирования : UTC 2010-02-22 21:41:31
Программа кодирования : mkvmerge v5.9.0 ('On The Loose') built on Dec 9 2012 15:37:01
Библиотека кодирования : libebml v1.3.0 + libmatroska v1.4.0
Attachements : cover.jpg / small_cover.jpg / cover_land.jpg / small_cover_land.jpg
Видео
Идентификатор : 1
Формат : AVC
Формат/Информация : Advanced Video Codec
Профиль формата : High@L4.1
Параметр CABAC формата : Да
Параметр ReFrames формата : 9 кадров
Идентификатор кодека : V_MPEG4/ISO/AVC
Продолжительность : 58 м. 9 с.
Битрейт : 5518 Кбит/сек
Ширина : 1280 пикселей
Высота : 720 пикселей
Соотношение сторон : 16:9
Режим частоты кадров : Постоянный
Частота кадров : 29,970 кадров/сек
Цветовое пространство : YUV
Субдискретизация насыщенности : 4:2:0
Битовая глубина : 8 бит
Тип развёртки : Прогрессивная
Бит/(Пиксели*Кадры) : 0.200
Размер потока : 2,19 Гбайт (85%)
Заголовок : The Untold History of the United States (USA, 2012) / Нерассказанная история Соединенных Штатов (США, 2012)
Библиотека кодирования : x264 core 124 r2197+666+28 3970b70 tMod+MixAQ [8-bit@4:2:0 X86]
Настройки программы : cabac=1 / ref=9 / deblock=1:-1:-1 / analyse=0x3:0x133 / me=umh / subme=11 / psy=1 / fade_compensate=0.00 / psy_rd=1.05:0.10 / mixed_ref=1 / me_range=32 / chroma_me=1 / trellis=2 / 8x8dct=1 / cqm=0 / deadzone=21,11 / fast_pskip=0 / chroma_qp_offset=-3 / threads=12 / sliced_threads=0 / nr=0 / decimate=0 / interlaced=0 / bluray_compat=0 / constrained_intra=0 / fgo=0 / bframes=8 / b_pyramid=2 / b_adapt=2 / b_bias=0 / direct=3 / weightb=1 / open_gop=0 / weightp=2 / keyint=250 / keyint_min=25 / scenecut=40 / intra_refresh=0 / rc_lookahead=50 / rc=2pass / mbtree=1 / bitrate=5518 / ratetol=1.0 / qcomp=0.70 / qpmin=0 / qpmax=69 / qpstep=4 / cplxblur=20.0 / qblur=0.5 / ip_ratio=1.40 / aq=3 / aq-strength=0.80 / aq-sensitivity=10.00 / aq-ifactor=1.00 / aq-pfactor=1.00 / aq-bfactor=1.00 / aq2=0
Язык : English
Default : Да
Forced : Нет
Аудио #1
Идентификатор : 2
Формат : AC-3
Формат/Информация : Audio Coding 3
Расширение режима : CM (complete main)
Параметр Endianness формата : Big
Идентификатор кодека : A_AC3
Продолжительность : 58 м. 9 с.
Вид битрейта : Постоянный
Битрейт : 640 Кбит/сек
Каналы : 6 каналов
Расположение каналов : Front: L C R, Side: L R, LFE
Частота : 48,0 КГц
Битовая глубина : 16 бит
Метод сжатия : С потерями
Размер потока : 266 Мбайт (10%)
Заголовок : Original / AC3, 6 ch, 640 Kbps
Язык : English
Default : Нет
Forced : Нет
Аудио #2
Идентификатор : 3
Формат : AC-3
Формат/Информация : Audio Coding 3
Расширение режима : CM (complete main)
Параметр Endianness формата : Big
Идентификатор кодека : A_AC3
Продолжительность : 58 м. 9 с.
Вид битрейта : Постоянный
Битрейт : 192 Кбит/сек
Каналы : 2 канала
Расположение каналов : Front: L R
Частота : 48,0 КГц
Битовая глубина : 16 бит
Метод сжатия : С потерями
Размер потока : 79,9 Мбайт (3%)
Заголовок : MVO, Channel One Russia / AC3, 2 ch, 192 Kbps
Язык : Russian
Default : Да
Forced : Нет
Текст #1
Идентификатор : 4
Формат : ASS
Идентификатор кодека : S_TEXT/ASS
Идентификатор кодека/Информация : Advanced Sub Station Alpha
Метод сжатия : Без потерь
Заголовок : English
Язык : English
Default : Нет
Forced : Нет
Текст #2
Идентификатор : 5
Формат : ASS
Идентификатор кодека : S_TEXT/ASS
Идентификатор кодека/Информация : Advanced Sub Station Alpha
Метод сжатия : Без потерь
Заголовок : Russian, forced
Язык : Russian
Default : Нет
Forced : Да
Текст #3
Идентификатор : 6
Формат : ASS
Идентификатор кодека : S_TEXT/ASS
Идентификатор кодека/Информация : Advanced Sub Station Alpha
Метод сжатия : Без потерь
Заголовок : Russian, Dori Media Ot Ltd.
Язык : Russian
Default : Нет
Forced : Нет
Текст #4
Идентификатор : 7
Формат : ASS
Идентификатор кодека : S_TEXT/ASS
Идентификатор кодека/Информация : Advanced Sub Station Alpha
Метод сжатия : Без потерь
Заголовок : Chinese, jlpzj.net
Язык : Chinese
Default : Нет
Forced : Нет
Текст #5
Идентификатор : 8
Формат : ASS
Идентификатор кодека : S_TEXT/ASS
Идентификатор кодека/Информация : Advanced Sub Station Alpha
Метод сжатия : Без потерь
Заголовок : Chinese + English, jlpzj.net
Язык : Chinese
Default : Нет
Forced : Нет

Chapter 3. The Bomb / Эпизод 3. Бомба

Общее
Уникальный идентификатор : 247932992801176787064281919456852676240 (0xBA8628522A26D0C9A3A66EF66FD98E90)
Полное имя : C:\The Untold History of the United States E03 (2012).AVC.720p.AC3x2.SUBx5.BDRip.mkv
Формат : Matroska
Версия формата : Version 4 / Version 2
Размер файла : 2,58 Гбайт
Продолжительность : 58 м. 4 с.
Общий поток : 6356 Кбит/сек
Название фильма : Chapter 3. The Bomb / Эпизод 3. Бомба
Дата кодирования : UTC 2010-02-22 21:41:31
Программа кодирования : mkvmerge v5.9.0 ('On The Loose') built on Dec 9 2012 15:37:01
Библиотека кодирования : libebml v1.3.0 + libmatroska v1.4.0
Attachements : cover.jpg / small_cover.jpg / cover_land.jpg / small_cover_land.jpg
Видео
Идентификатор : 1
Формат : AVC
Формат/Информация : Advanced Video Codec
Профиль формата : High@L4.1
Параметр CABAC формата : Да
Параметр ReFrames формата : 9 кадров
Идентификатор кодека : V_MPEG4/ISO/AVC
Продолжительность : 58 м. 4 с.
Битрейт : 5518 Кбит/сек
Ширина : 1280 пикселей
Высота : 720 пикселей
Соотношение сторон : 16:9
Режим частоты кадров : Постоянный
Частота кадров : 29,970 кадров/сек
Цветовое пространство : YUV
Субдискретизация насыщенности : 4:2:0
Битовая глубина : 8 бит
Тип развёртки : Прогрессивная
Бит/(Пиксели*Кадры) : 0.200
Размер потока : 2,19 Гбайт (85%)
Заголовок : The Untold History of the United States (USA, 2012) / Нерассказанная история Соединенных Штатов (США, 2012)
Библиотека кодирования : x264 core 124 r2197+666+28 3970b70 tMod+MixAQ [8-bit@4:2:0 X86]
Настройки программы : cabac=1 / ref=9 / deblock=1:-1:-1 / analyse=0x3:0x133 / me=umh / subme=11 / psy=1 / fade_compensate=0.00 / psy_rd=1.05:0.10 / mixed_ref=1 / me_range=32 / chroma_me=1 / trellis=2 / 8x8dct=1 / cqm=0 / deadzone=21,11 / fast_pskip=0 / chroma_qp_offset=-3 / threads=12 / sliced_threads=0 / nr=0 / decimate=0 / interlaced=0 / bluray_compat=0 / constrained_intra=0 / fgo=0 / bframes=8 / b_pyramid=2 / b_adapt=2 / b_bias=0 / direct=3 / weightb=1 / open_gop=0 / weightp=2 / keyint=250 / keyint_min=25 / scenecut=40 / intra_refresh=0 / rc_lookahead=50 / rc=2pass / mbtree=1 / bitrate=5518 / ratetol=1.0 / qcomp=0.70 / qpmin=0 / qpmax=69 / qpstep=4 / cplxblur=20.0 / qblur=0.5 / ip_ratio=1.40 / aq=3 / aq-strength=0.80 / aq-sensitivity=10.00 / aq-ifactor=1.00 / aq-pfactor=1.00 / aq-bfactor=1.00 / aq2=0
Язык : English
Default : Да
Forced : Нет
Аудио #1
Идентификатор : 2
Формат : AC-3
Формат/Информация : Audio Coding 3
Расширение режима : CM (complete main)
Параметр Endianness формата : Big
Идентификатор кодека : A_AC3
Продолжительность : 58 м. 4 с.
Вид битрейта : Постоянный
Битрейт : 640 Кбит/сек
Каналы : 6 каналов
Расположение каналов : Front: L C R, Side: L R, LFE
Частота : 48,0 КГц
Битовая глубина : 16 бит
Метод сжатия : С потерями
Размер потока : 266 Мбайт (10%)
Заголовок : Original / AC3, 6 ch, 640 Kbps
Язык : English
Default : Нет
Forced : Нет
Аудио #2
Идентификатор : 3
Формат : AC-3
Формат/Информация : Audio Coding 3
Расширение режима : CM (complete main)
Параметр Endianness формата : Big
Идентификатор кодека : A_AC3
Продолжительность : 58 м. 4 с.
Вид битрейта : Постоянный
Битрейт : 192 Кбит/сек
Каналы : 2 канала
Расположение каналов : Front: L R
Частота : 48,0 КГц
Битовая глубина : 16 бит
Метод сжатия : С потерями
Размер потока : 79,8 Мбайт (3%)
Заголовок : MVO, Channel One Russia / AC3, 2 ch, 192 Kbps
Язык : Russian
Default : Да
Forced : Нет
Текст #1
Идентификатор : 4
Формат : ASS
Идентификатор кодека : S_TEXT/ASS
Идентификатор кодека/Информация : Advanced Sub Station Alpha
Метод сжатия : Без потерь
Заголовок : English
Язык : English
Default : Нет
Forced : Нет
Текст #2
Идентификатор : 5
Формат : ASS
Идентификатор кодека : S_TEXT/ASS
Идентификатор кодека/Информация : Advanced Sub Station Alpha
Метод сжатия : Без потерь
Заголовок : Russian, forced
Язык : Russian
Default : Нет
Forced : Да
Текст #3
Идентификатор : 6
Формат : ASS
Идентификатор кодека : S_TEXT/ASS
Идентификатор кодека/Информация : Advanced Sub Station Alpha
Метод сжатия : Без потерь
Заголовок : Russian, Dori Media Ot Ltd.
Язык : Russian
Default : Нет
Forced : Нет
Текст #4
Идентификатор : 7
Формат : ASS
Идентификатор кодека : S_TEXT/ASS
Идентификатор кодека/Информация : Advanced Sub Station Alpha
Метод сжатия : Без потерь
Заголовок : Chinese, jlpzj.net
Язык : Chinese
Default : Нет
Forced : Нет
Текст #5
Идентификатор : 8
Формат : ASS
Идентификатор кодека : S_TEXT/ASS
Идентификатор кодека/Информация : Advanced Sub Station Alpha
Метод сжатия : Без потерь
Заголовок : Chinese + English, jlpzj.net
Язык : Chinese
Default : Нет
Forced : Нет

Chapter 4. The Cold War 1945-1950 / Эпизод 4. Холодная война 1945-1950

Общее
Уникальный идентификатор : 235288374527250231583656297432365190054 (0xB102E481E1790A38B1C8A452043CCBA6)
Полное имя : C:\The Untold History of the United States E04 (2012).AVC.720p.AC3x2.SUBx5.BDRip.mkv
Формат : Matroska
Версия формата : Version 4 / Version 2
Размер файла : 2,58 Гбайт
Продолжительность : 58 м. 2 с.
Общий поток : 6360 Кбит/сек
Название фильма : Chapter 4. The Cold War 1945-1950 / Эпизод 4. Холодная война 1945-1950
Дата кодирования : UTC 2010-02-22 21:41:31
Программа кодирования : mkvmerge v5.9.0 ('On The Loose') built on Dec 9 2012 15:37:01
Библиотека кодирования : libebml v1.3.0 + libmatroska v1.4.0
Attachements : cover.jpg / small_cover.jpg / cover_land.jpg / small_cover_land.jpg
Видео
Идентификатор : 1
Формат : AVC
Формат/Информация : Advanced Video Codec
Профиль формата : High@L4.1
Параметр CABAC формата : Да
Параметр ReFrames формата : 9 кадров
Идентификатор кодека : V_MPEG4/ISO/AVC
Продолжительность : 58 м. 2 с.
Битрейт : 5522 Кбит/сек
Ширина : 1280 пикселей
Высота : 720 пикселей
Соотношение сторон : 16:9
Режим частоты кадров : Постоянный
Частота кадров : 29,970 кадров/сек
Цветовое пространство : YUV
Субдискретизация насыщенности : 4:2:0
Битовая глубина : 8 бит
Тип развёртки : Прогрессивная
Бит/(Пиксели*Кадры) : 0.200
Размер потока : 2,19 Гбайт (85%)
Заголовок : The Untold History of the United States (USA, 2012) / Нерассказанная история Соединенных Штатов (США, 2012)
Библиотека кодирования : x264 core 124 r2197+666+28 3970b70 tMod+MixAQ [8-bit@4:2:0 X86]
Настройки программы : cabac=1 / ref=9 / deblock=1:-1:-1 / analyse=0x3:0x133 / me=umh / subme=11 / psy=1 / fade_compensate=0.00 / psy_rd=1.05:0.10 / mixed_ref=1 / me_range=32 / chroma_me=1 / trellis=2 / 8x8dct=1 / cqm=0 / deadzone=21,11 / fast_pskip=0 / chroma_qp_offset=-3 / threads=12 / sliced_threads=0 / nr=0 / decimate=0 / interlaced=0 / bluray_compat=0 / constrained_intra=0 / fgo=0 / bframes=8 / b_pyramid=2 / b_adapt=2 / b_bias=0 / direct=3 / weightb=1 / open_gop=0 / weightp=2 / keyint=250 / keyint_min=25 / scenecut=40 / intra_refresh=0 / rc_lookahead=50 / rc=2pass / mbtree=1 / bitrate=5522 / ratetol=1.0 / qcomp=0.70 / qpmin=0 / qpmax=69 / qpstep=4 / cplxblur=20.0 / qblur=0.5 / ip_ratio=1.40 / aq=3 / aq-strength=0.80 / aq-sensitivity=10.00 / aq-ifactor=1.00 / aq-pfactor=1.00 / aq-bfactor=1.00 / aq2=0
Язык : English
Default : Да
Forced : Нет
Аудио #1
Идентификатор : 2
Формат : AC-3
Формат/Информация : Audio Coding 3
Расширение режима : CM (complete main)
Параметр Endianness формата : Big
Идентификатор кодека : A_AC3
Продолжительность : 58 м. 2 с.
Вид битрейта : Постоянный
Битрейт : 640 Кбит/сек
Каналы : 6 каналов
Расположение каналов : Front: L C R, Side: L R, LFE
Частота : 48,0 КГц
Битовая глубина : 16 бит
Метод сжатия : С потерями
Размер потока : 266 Мбайт (10%)
Заголовок : Original / AC3, 6 ch, 640 Kbps
Язык : English
Default : Нет
Forced : Нет
Аудио #2
Идентификатор : 3
Формат : AC-3
Формат/Информация : Audio Coding 3
Расширение режима : CM (complete main)
Параметр Endianness формата : Big
Идентификатор кодека : A_AC3
Продолжительность : 58 м. 2 с.
Вид битрейта : Постоянный
Битрейт : 192 Кбит/сек
Каналы : 2 канала
Расположение каналов : Front: L R
Частота : 48,0 КГц
Битовая глубина : 16 бит
Метод сжатия : С потерями
Размер потока : 79,7 Мбайт (3%)
Заголовок : MVO, Channel One Russia / AC3, 2 ch, 192 Kbps
Язык : Russian
Default : Да
Forced : Нет
Текст #1
Идентификатор : 4
Формат : ASS
Идентификатор кодека : S_TEXT/ASS
Идентификатор кодека/Информация : Advanced Sub Station Alpha
Метод сжатия : Без потерь
Заголовок : English
Язык : English
Default : Нет
Forced : Нет
Текст #2
Идентификатор : 5
Формат : ASS
Идентификатор кодека : S_TEXT/ASS
Идентификатор кодека/Информация : Advanced Sub Station Alpha
Метод сжатия : Без потерь
Заголовок : Russian, forced
Язык : Russian
Default : Нет
Forced : Да
Текст #3
Идентификатор : 6
Формат : ASS
Идентификатор кодека : S_TEXT/ASS
Идентификатор кодека/Информация : Advanced Sub Station Alpha
Метод сжатия : Без потерь
Заголовок : Russian, Dori Media Ot Ltd.
Язык : Russian
Default : Нет
Forced : Нет
Текст #4
Идентификатор : 7
Формат : ASS
Идентификатор кодека : S_TEXT/ASS
Идентификатор кодека/Информация : Advanced Sub Station Alpha
Метод сжатия : Без потерь
Заголовок : Chinese, jlpzj.net
Язык : Chinese
Default : Нет
Forced : Нет
Текст #5
Идентификатор : 8
Формат : ASS
Идентификатор кодека : S_TEXT/ASS
Идентификатор кодека/Информация : Advanced Sub Station Alpha
Метод сжатия : Без потерь
Заголовок : Chinese + English, jlpzj.net
Язык : Chinese
Default : Нет
Forced : Нет

Chapter 5. The 50s: Eisenhower, the Bomb & the Third World / Эпизод 5. 50-е годы: Эйзенхауэр, бомба и страны третьего мира

Общее
Уникальный идентификатор : 209677716097577336649907819280548339465 (0x9DBE758ECE79DA549634FD53C0D99F09)
Полное имя : C:\The Untold History of the United States E05 (2012).AVC.720p.AC3x2.SUBx5.BDRip.mkv
Формат : Matroska
Версия формата : Version 4 / Version 2
Размер файла : 2,58 Гбайт
Продолжительность : 57 м. 59 с.
Общий поток : 6366 Кбит/сек
Название фильма : Chapter 5. The 50s: Eisenhower, the Bomb & the Third World / Эпизод 5. 50-е годы: Эйзенхауэр, бомба и страны третьего мира
Дата кодирования : UTC 2010-02-22 21:41:31
Программа кодирования : mkvmerge v5.9.0 ('On The Loose') built on Dec 9 2012 15:37:01
Библиотека кодирования : libebml v1.3.0 + libmatroska v1.4.0
Attachements : cover.jpg / small_cover.jpg / cover_land.jpg / small_cover_land.jpg
Видео
Идентификатор : 1
Формат : AVC
Формат/Информация : Advanced Video Codec
Профиль формата : High@L4.1
Параметр CABAC формата : Да
Параметр ReFrames формата : 9 кадров
Идентификатор кодека : V_MPEG4/ISO/AVC
Продолжительность : 57 м. 59 с.
Битрейт : 5528 Кбит/сек
Ширина : 1280 пикселей
Высота : 720 пикселей
Соотношение сторон : 16:9
Режим частоты кадров : Постоянный
Частота кадров : 29,970 кадров/сек
Цветовое пространство : YUV
Субдискретизация насыщенности : 4:2:0
Битовая глубина : 8 бит
Тип развёртки : Прогрессивная
Бит/(Пиксели*Кадры) : 0.200
Размер потока : 2,19 Гбайт (85%)
Заголовок : The Untold History of the United States (USA, 2012) / Нерассказанная история Соединенных Штатов (США, 2012)
Библиотека кодирования : x264 core 129 r2245+704+36 8e61944 tMod+MixAQ [8-bit@4:2:0 X86]
Настройки программы : cabac=1 / ref=9 / deblock=1:-1:-1 / analyse=0x3:0x133 / me=umh / subme=11 / psy=1 / fade_compensate=0.00 / psy_rd=1.05:0.10 / mixed_ref=1 / me_range=32 / chroma_me=1 / trellis=2 / 8x8dct=1 / cqm=0 / deadzone=21,11 / fast_pskip=0 / chroma_qp_offset=-3 / threads=18 / lookahead_threads=3 / sliced_threads=0 / nr=0 / decimate=0 / interlaced=0 / bluray_compat=0 / constrained_intra=0 / fgo=0 / bframes=8 / b_pyramid=2 / b_adapt=2 / b_bias=0 / direct=3 / weightb=1 / open_gop=0 / weightp=2 / keyint=250 / keyint_min=25 / scenecut=40 / intra_refresh=0 / rc_lookahead=50 / rc=2pass / mbtree=1 / bitrate=5528 / ratetol=1.0 / qcomp=0.70 / qpmin=0 / qpmax=69 / qpstep=4 / cplxblur=20.0 / qblur=0.5 / ip_ratio=1.40 / aq=3 / aq-strength=0.80 / aq-sensitivity=10.00 / aq-ifactor=1.00 / aq-pfactor=1.00 / aq-bfactor=1.00 / aq2=0
Язык : English
Default : Да
Forced : Нет
Аудио #1
Идентификатор : 2
Формат : AC-3
Формат/Информация : Audio Coding 3
Расширение режима : CM (complete main)
Параметр Endianness формата : Big
Идентификатор кодека : A_AC3
Продолжительность : 57 м. 59 с.
Вид битрейта : Постоянный
Битрейт : 640 Кбит/сек
Каналы : 6 каналов
Расположение каналов : Front: L C R, Side: L R, LFE
Частота : 48,0 КГц
Битовая глубина : 16 бит
Метод сжатия : С потерями
Размер потока : 265 Мбайт (10%)
Заголовок : Original / AC3, 6 ch, 640 Kbps
Язык : English
Default : Нет
Forced : Нет
Аудио #2
Идентификатор : 3
Формат : AC-3
Формат/Информация : Audio Coding 3
Расширение режима : CM (complete main)
Параметр Endianness формата : Big
Идентификатор кодека : A_AC3
Продолжительность : 57 м. 59 с.
Вид битрейта : Постоянный
Битрейт : 192 Кбит/сек
Каналы : 2 канала
Расположение каналов : Front: L R
Частота : 48,0 КГц
Битовая глубина : 16 бит
Метод сжатия : С потерями
Размер потока : 79,6 Мбайт (3%)
Заголовок : MVO, Channel One Russia / AC3, 2 ch, 192 Kbps
Язык : Russian
Default : Да
Forced : Нет
Текст #1
Идентификатор : 4
Формат : ASS
Идентификатор кодека : S_TEXT/ASS
Идентификатор кодека/Информация : Advanced Sub Station Alpha
Метод сжатия : Без потерь
Заголовок : English
Язык : English
Default : Нет
Forced : Нет
Текст #2
Идентификатор : 5
Формат : ASS
Идентификатор кодека : S_TEXT/ASS
Идентификатор кодека/Информация : Advanced Sub Station Alpha
Метод сжатия : Без потерь
Заголовок : Russian, forced
Язык : Russian
Default : Нет
Forced : Да
Текст #3
Идентификатор : 6
Формат : ASS
Идентификатор кодека : S_TEXT/ASS
Идентификатор кодека/Информация : Advanced Sub Station Alpha
Метод сжатия : Без потерь
Заголовок : Russian, Dori Media Ot Ltd.
Язык : Russian
Default : Нет
Forced : Нет
Текст #4
Идентификатор : 7
Формат : ASS
Идентификатор кодека : S_TEXT/ASS
Идентификатор кодека/Информация : Advanced Sub Station Alpha
Метод сжатия : Без потерь
Заголовок : Chinese, jlpzj.net
Язык : Chinese
Default : Нет
Forced : Нет
Текст #5
Идентификатор : 8
Формат : ASS
Идентификатор кодека : S_TEXT/ASS
Идентификатор кодека/Информация : Advanced Sub Station Alpha
Метод сжатия : Без потерь
Заголовок : Chinese + English, jlpzj.net
Язык : Chinese
Default : Нет
Forced : Нет

Chapter 6. JFK: To The Brink / Эпизод 6. Дж.Ф. Кеннеди: На грани

Общее
Уникальный идентификатор : 177101164369422698597555036999591600544 (0x853C718D714981CEBD8AB841084F21A0)
Полное имя : C:\The Untold History of the United States E06 (2012).AVC.720p.AC3x2.SUBx5.BDRip.mkv
Формат : Matroska
Версия формата : Version 4 / Version 2
Размер файла : 2,58 Гбайт
Продолжительность : 57 м. 50 с.
Общий поток : 6382 Кбит/сек
Название фильма : Chapter 6. JFK: To The Brink / Эпизод 6. Дж.Ф. Кеннеди: На грани
Дата кодирования : UTC 2010-02-22 21:41:31
Программа кодирования : mkvmerge v5.9.0 ('On The Loose') built on Dec 9 2012 15:37:01
Библиотека кодирования : libebml v1.3.0 + libmatroska v1.4.0
Attachements : cover.jpg / small_cover.jpg / cover_land.jpg / small_cover_land.jpg
Видео
Идентификатор : 1
Формат : AVC
Формат/Информация : Advanced Video Codec
Профиль формата : High@L4.1
Параметр CABAC формата : Да
Параметр ReFrames формата : 9 кадров
Идентификатор кодека : V_MPEG4/ISO/AVC
Продолжительность : 57 м. 50 с.
Битрейт : 5544 Кбит/сек
Ширина : 1280 пикселей
Высота : 720 пикселей
Соотношение сторон : 16:9
Режим частоты кадров : Постоянный
Частота кадров : 29,970 кадров/сек
Цветовое пространство : YUV
Субдискретизация насыщенности : 4:2:0
Битовая глубина : 8 бит
Тип развёртки : Прогрессивная
Бит/(Пиксели*Кадры) : 0.201
Размер потока : 2,19 Гбайт (85%)
Заголовок : The Untold History of the United States (USA, 2012) / Нерассказанная история Соединенных Штатов (США, 2012)
Библиотека кодирования : x264 core 124 r2197+666+28 3970b70 tMod+MixAQ [8-bit@4:2:0 X86]
Настройки программы : cabac=1 / ref=9 / deblock=1:-1:-1 / analyse=0x3:0x133 / me=umh / subme=11 / psy=1 / fade_compensate=0.00 / psy_rd=1.05:0.10 / mixed_ref=1 / me_range=32 / chroma_me=1 / trellis=2 / 8x8dct=1 / cqm=0 / deadzone=21,11 / fast_pskip=0 / chroma_qp_offset=-3 / threads=12 / sliced_threads=0 / nr=0 / decimate=0 / interlaced=0 / bluray_compat=0 / constrained_intra=0 / fgo=0 / bframes=8 / b_pyramid=2 / b_adapt=2 / b_bias=0 / direct=3 / weightb=1 / open_gop=0 / weightp=2 / keyint=250 / keyint_min=25 / scenecut=40 / intra_refresh=0 / rc_lookahead=50 / rc=2pass / mbtree=1 / bitrate=5544 / ratetol=1.0 / qcomp=0.70 / qpmin=0 / qpmax=69 / qpstep=4 / cplxblur=20.0 / qblur=0.5 / ip_ratio=1.40 / aq=3 / aq-strength=0.80 / aq-sensitivity=10.00 / aq-ifactor=1.00 / aq-pfactor=1.00 / aq-bfactor=1.00 / aq2=0
Язык : English
Default : Да
Forced : Нет
Аудио #1
Идентификатор : 2
Формат : AC-3
Формат/Информация : Audio Coding 3
Расширение режима : CM (complete main)
Параметр Endianness формата : Big
Идентификатор кодека : A_AC3
Продолжительность : 57 м. 50 с.
Вид битрейта : Постоянный
Битрейт : 640 Кбит/сек
Каналы : 6 каналов
Расположение каналов : Front: L C R, Side: L R, LFE
Частота : 48,0 КГц
Битовая глубина : 16 бит
Метод сжатия : С потерями
Размер потока : 265 Мбайт (10%)
Заголовок : Original / AC3, 6 ch, 640 Kbps
Язык : English
Default : Нет
Forced : Нет
Аудио #2
Идентификатор : 3
Формат : AC-3
Формат/Информация : Audio Coding 3
Расширение режима : CM (complete main)
Параметр Endianness формата : Big
Идентификатор кодека : A_AC3
Продолжительность : 57 м. 50 с.
Вид битрейта : Постоянный
Битрейт : 192 Кбит/сек
Каналы : 2 канала
Расположение каналов : Front: L R
Частота : 48,0 КГц
Битовая глубина : 16 бит
Метод сжатия : С потерями
Размер потока : 79,4 Мбайт (3%)
Заголовок : MVO, Channel One Russia / AC3, 2 ch, 192 Kbps
Язык : Russian
Default : Да
Forced : Нет
Текст #1
Идентификатор : 4
Формат : ASS
Идентификатор кодека : S_TEXT/ASS
Идентификатор кодека/Информация : Advanced Sub Station Alpha
Метод сжатия : Без потерь
Заголовок : English
Язык : English
Default : Нет
Forced : Нет
Текст #2
Идентификатор : 5
Формат : ASS
Идентификатор кодека : S_TEXT/ASS
Идентификатор кодека/Информация : Advanced Sub Station Alpha
Метод сжатия : Без потерь
Заголовок : Russian, forced
Язык : Russian
Default : Нет
Forced : Да
Текст #3
Идентификатор : 6
Формат : ASS
Идентификатор кодека : S_TEXT/ASS
Идентификатор кодека/Информация : Advanced Sub Station Alpha
Метод сжатия : Без потерь
Заголовок : Russian, Dori Media Ot Ltd.
Язык : Russian
Default : Нет
Forced : Нет
Текст #4
Идентификатор : 7
Формат : ASS
Идентификатор кодека : S_TEXT/ASS
Идентификатор кодека/Информация : Advanced Sub Station Alpha
Метод сжатия : Без потерь
Заголовок : Chinese, jlpzj.net
Язык : Chinese
Default : Нет
Forced : Нет
Текст #5
Идентификатор : 8
Формат : ASS
Идентификатор кодека : S_TEXT/ASS
Идентификатор кодека/Информация : Advanced Sub Station Alpha
Метод сжатия : Без потерь
Заголовок : Chinese + English, jlpzj.net
Язык : Chinese
Default : Нет
Forced : Нет

Chapter 7. Johnson, Nixon & Vietnam: Reversal of Fortune / Эпизод 7. Джонсон, Никсон и Вьетнам: Колесо фортуны

Общее
Уникальный идентификатор : 219878750909195348063129196054477455810 (0xA56B1B67B28ECC7EA385F2DA439EC1C2)
Полное имя : C:\The Untold History of the United States E07 (2012).AVC.720p.AC3x2.SUBx5.BDRip.mkv
Формат : Matroska
Версия формата : Version 4 / Version 2
Размер файла : 2,58 Гбайт
Продолжительность : 57 м. 57 с.
Общий поток : 6370 Кбит/сек
Название фильма : Chapter 7. Johnson, Nixon & Vietnam: Reversal of Fortune / Эпизод 7. Джонсон, Никсон и Вьетнам: Колесо фортуны
Дата кодирования : UTC 2010-02-22 21:41:31
Программа кодирования : mkvmerge v5.9.0 ('On The Loose') built on Dec 9 2012 15:37:01
Библиотека кодирования : libebml v1.3.0 + libmatroska v1.4.0
Attachements : cover.jpg / small_cover.jpg / cover_land.jpg / small_cover_land.jpg
Видео
Идентификатор : 1
Формат : AVC
Формат/Информация : Advanced Video Codec
Профиль формата : High@L4.1
Параметр CABAC формата : Да
Параметр ReFrames формата : 9 кадров
Идентификатор кодека : V_MPEG4/ISO/AVC
Продолжительность : 57 м. 57 с.
Битрейт : 5532 Кбит/сек
Ширина : 1280 пикселей
Высота : 720 пикселей
Соотношение сторон : 16:9
Режим частоты кадров : Постоянный
Частота кадров : 29,970 кадров/сек
Цветовое пространство : YUV
Субдискретизация насыщенности : 4:2:0
Битовая глубина : 8 бит
Тип развёртки : Прогрессивная
Бит/(Пиксели*Кадры) : 0.200
Размер потока : 2,19 Гбайт (85%)
Заголовок : The Untold History of the United States (USA, 2012) / Нерассказанная история Соединенных Штатов (США, 2012)
Библиотека кодирования : x264 core 124 r2197+666+28 3970b70 tMod+MixAQ [8-bit@4:2:0 X86]
Настройки программы : cabac=1 / ref=9 / deblock=1:-1:-1 / analyse=0x3:0x133 / me=umh / subme=11 / psy=1 / fade_compensate=0.00 / psy_rd=1.05:0.10 / mixed_ref=1 / me_range=32 / chroma_me=1 / trellis=2 / 8x8dct=1 / cqm=0 / deadzone=21,11 / fast_pskip=0 / chroma_qp_offset=-3 / threads=12 / sliced_threads=0 / nr=0 / decimate=0 / interlaced=0 / bluray_compat=0 / constrained_intra=0 / fgo=0 / bframes=8 / b_pyramid=2 / b_adapt=2 / b_bias=0 / direct=3 / weightb=1 / open_gop=0 / weightp=2 / keyint=250 / keyint_min=25 / scenecut=40 / intra_refresh=0 / rc_lookahead=50 / rc=2pass / mbtree=1 / bitrate=5532 / ratetol=1.0 / qcomp=0.70 / qpmin=0 / qpmax=69 / qpstep=4 / cplxblur=20.0 / qblur=0.5 / ip_ratio=1.40 / aq=3 / aq-strength=0.80 / aq-sensitivity=10.00 / aq-ifactor=1.00 / aq-pfactor=1.00 / aq-bfactor=1.00 / aq2=0
Язык : English
Default : Да
Forced : Нет
Аудио #1
Идентификатор : 2
Формат : AC-3
Формат/Информация : Audio Coding 3
Расширение режима : CM (complete main)
Параметр Endianness формата : Big
Идентификатор кодека : A_AC3
Продолжительность : 57 м. 57 с.
Вид битрейта : Постоянный
Битрейт : 640 Кбит/сек
Каналы : 6 каналов
Расположение каналов : Front: L C R, Side: L R, LFE
Частота : 48,0 КГц
Битовая глубина : 16 бит
Метод сжатия : С потерями
Размер потока : 265 Мбайт (10%)
Заголовок : Original / AC3, 6 ch, 640 Kbps
Язык : English
Default : Нет
Forced : Нет
Аудио #2
Идентификатор : 3
Формат : AC-3
Формат/Информация : Audio Coding 3
Расширение режима : CM (complete main)
Параметр Endianness формата : Big
Идентификатор кодека : A_AC3
Продолжительность : 57 м. 57 с.
Вид битрейта : Постоянный
Битрейт : 192 Кбит/сек
Каналы : 2 канала
Расположение каналов : Front: L R
Частота : 48,0 КГц
Битовая глубина : 16 бит
Метод сжатия : С потерями
Размер потока : 79,6 Мбайт (3%)
Заголовок : MVO, Channel One Russia / AC3, 2 ch, 192 Kbps
Язык : Russian
Default : Да
Forced : Нет
Текст #1
Идентификатор : 4
Формат : ASS
Идентификатор кодека : S_TEXT/ASS
Идентификатор кодека/Информация : Advanced Sub Station Alpha
Метод сжатия : Без потерь
Заголовок : English
Язык : English
Default : Нет
Forced : Нет
Текст #2
Идентификатор : 5
Формат : ASS
Идентификатор кодека : S_TEXT/ASS
Идентификатор кодека/Информация : Advanced Sub Station Alpha
Метод сжатия : Без потерь
Заголовок : Russian, forced
Язык : Russian
Default : Нет
Forced : Да
Текст #3
Идентификатор : 6
Формат : ASS
Идентификатор кодека : S_TEXT/ASS
Идентификатор кодека/Информация : Advanced Sub Station Alpha
Метод сжатия : Без потерь
Заголовок : Russian, Dori Media Ot Ltd.
Язык : Russian
Default : Нет
Forced : Нет
Текст #4
Идентификатор : 7
Формат : ASS
Идентификатор кодека : S_TEXT/ASS
Идентификатор кодека/Информация : Advanced Sub Station Alpha
Метод сжатия : Без потерь
Заголовок : Chinese, jlpzj.net
Язык : Chinese
Default : Нет
Forced : Нет
Текст #5
Идентификатор : 8
Формат : ASS
Идентификатор кодека : S_TEXT/ASS
Идентификатор кодека/Информация : Advanced Sub Station Alpha
Метод сжатия : Без потерь
Заголовок : Chinese + English, jlpzj.net
Язык : Chinese
Default : Нет
Forced : Нет

Chapter 8. Reagan, Gorbachev & Third World: Rise of the Right / Эпизод 8. Рейган, Горбачев и страны третьего мира: Торжество правых

Общее
Уникальный идентификатор : 251575655716515466172056726738679216903 (0xBD43B5780068DC9BB3ACB2724DADBB07)
Полное имя : C:\The Untold History of the United States E08 (2012).AVC.720p.AC3x2.SUBx5.BDRip.mkv
Формат : Matroska
Версия формата : Version 4 / Version 2
Размер файла : 2,58 Гбайт
Продолжительность : 57 м. 33 с.
Общий поток : 6412 Кбит/сек
Название фильма : Chapter 8. Reagan, Gorbachev & Third World: Rise of the Right / Эпизод 8. Рейган, Горбачев и страны третьего мира: Торжество правых
Дата кодирования : UTC 2010-02-22 21:41:31
Программа кодирования : mkvmerge v5.9.0 ('On The Loose') built on Dec 9 2012 15:37:01
Библиотека кодирования : libebml v1.3.0 + libmatroska v1.4.0
Attachements : cover.jpg / small_cover.jpg / cover_land.jpg / small_cover_land.jpg
Видео
Идентификатор : 1
Формат : AVC
Формат/Информация : Advanced Video Codec
Профиль формата : High@L4.1
Параметр CABAC формата : Да
Параметр ReFrames формата : 9 кадров
Идентификатор кодека : V_MPEG4/ISO/AVC
Продолжительность : 57 м. 33 с.
Битрейт : 5574 Кбит/сек
Ширина : 1280 пикселей
Высота : 720 пикселей
Соотношение сторон : 16:9
Режим частоты кадров : Постоянный
Частота кадров : 29,970 кадров/сек
Цветовое пространство : YUV
Субдискретизация насыщенности : 4:2:0
Битовая глубина : 8 бит
Тип развёртки : Прогрессивная
Бит/(Пиксели*Кадры) : 0.202
Размер потока : 2,19 Гбайт (85%)
Заголовок : The Untold History of the United States (USA, 2012) / Нерассказанная история Соединенных Штатов (США, 2012)
Библиотека кодирования : x264 core 129 r2245+704+36 8e61944 tMod+MixAQ [8-bit@4:2:0 X86]
Настройки программы : cabac=1 / ref=9 / deblock=1:-1:-1 / analyse=0x3:0x133 / me=umh / subme=11 / psy=1 / fade_compensate=0.00 / psy_rd=1.05:0.10 / mixed_ref=1 / me_range=32 / chroma_me=1 / trellis=2 / 8x8dct=1 / cqm=0 / deadzone=21,11 / fast_pskip=0 / chroma_qp_offset=-3 / threads=18 / lookahead_threads=3 / sliced_threads=0 / nr=0 / decimate=0 / interlaced=0 / bluray_compat=0 / constrained_intra=0 / fgo=0 / bframes=8 / b_pyramid=2 / b_adapt=2 / b_bias=0 / direct=3 / weightb=1 / open_gop=0 / weightp=2 / keyint=250 / keyint_min=25 / scenecut=40 / intra_refresh=0 / rc_lookahead=50 / rc=2pass / mbtree=1 / bitrate=5574 / ratetol=1.0 / qcomp=0.70 / qpmin=0 / qpmax=69 / qpstep=4 / cplxblur=20.0 / qblur=0.5 / ip_ratio=1.40 / aq=3 / aq-strength=0.80 / aq-sensitivity=10.00 / aq-ifactor=1.00 / aq-pfactor=1.00 / aq-bfactor=1.00 / aq2=0
Язык : English
Default : Да
Forced : Нет
Аудио #1
Идентификатор : 2
Формат : AC-3
Формат/Информация : Audio Coding 3
Расширение режима : CM (complete main)
Параметр Endianness формата : Big
Идентификатор кодека : A_AC3
Продолжительность : 57 м. 33 с.
Вид битрейта : Постоянный
Битрейт : 640 Кбит/сек
Каналы : 6 каналов
Расположение каналов : Front: L C R, Side: L R, LFE
Частота : 48,0 КГц
Битовая глубина : 16 бит
Метод сжатия : С потерями
Размер потока : 263 Мбайт (10%)
Заголовок : Original / AC3, 6 ch, 640 Kbps
Язык : English
Default : Нет
Forced : Нет
Аудио #2
Идентификатор : 3
Формат : AC-3
Формат/Информация : Audio Coding 3
Расширение режима : CM (complete main)
Параметр Endianness формата : Big
Идентификатор кодека : A_AC3
Продолжительность : 57 м. 33 с.
Вид битрейта : Постоянный
Битрейт : 192 Кбит/сек
Каналы : 2 канала
Расположение каналов : Front: L R
Частота : 48,0 КГц
Битовая глубина : 16 бит
Метод сжатия : С потерями
Размер потока : 79,0 Мбайт (3%)
Заголовок : MVO, Channel One Russia / AC3, 2 ch, 192 Kbps
Язык : Russian
Default : Да
Forced : Нет
Текст #1
Идентификатор : 4
Формат : ASS
Идентификатор кодека : S_TEXT/ASS
Идентификатор кодека/Информация : Advanced Sub Station Alpha
Метод сжатия : Без потерь
Заголовок : English
Язык : English
Default : Нет
Forced : Нет
Текст #2
Идентификатор : 5
Формат : ASS
Идентификатор кодека : S_TEXT/ASS
Идентификатор кодека/Информация : Advanced Sub Station Alpha
Метод сжатия : Без потерь
Заголовок : Russian, forced
Язык : Russian
Default : Нет
Forced : Да
Текст #3
Идентификатор : 6
Формат : ASS
Идентификатор кодека : S_TEXT/ASS
Идентификатор кодека/Информация : Advanced Sub Station Alpha
Метод сжатия : Без потерь
Заголовок : Russian, Dori Media Ot Ltd.
Язык : Russian
Default : Нет
Forced : Нет
Текст #4
Идентификатор : 7
Формат : ASS
Идентификатор кодека : S_TEXT/ASS
Идентификатор кодека/Информация : Advanced Sub Station Alpha
Метод сжатия : Без потерь
Заголовок : Chinese, jlpzj.net
Язык : Chinese
Default : Нет
Forced : Нет
Текст #5
Идентификатор : 8
Формат : ASS
Идентификатор кодека : S_TEXT/ASS
Идентификатор кодека/Информация : Advanced Sub Station Alpha
Метод сжатия : Без потерь
Заголовок : Chinese + English, jlpzj.net
Язык : Chinese
Default : Нет
Forced : Нет

Chapter 9. Bush & Clinton: American Triumphalism - New World Order / Эпизод 9. Буш и Клинтон: Американское превосходство и новый мировой порядок

Общее
Уникальный идентификатор : 211719779039038785933374208140221322176 (0x9F47BF08BC1FC59F9641E476DC0793C0)
Полное имя : C:\The Untold History of the United States E09 (2012).AVC.720p.AC3x2.SUBx5.BDRip.mkv
Формат : Matroska
Версия формата : Version 4 / Version 2
Размер файла : 2,58 Гбайт
Продолжительность : 58 м. 3 с.
Общий поток : 6360 Кбит/сек
Название фильма : Chapter 9. Bush & Clinton: American Triumphalism - New World Order / Эпизод 9. Буш и Клинтон: Американское превосходство и новый мировой порядок
Дата кодирования : UTC 2010-02-22 21:41:31
Программа кодирования : mkvmerge v5.9.0 ('On The Loose') built on Dec 9 2012 15:37:01
Библиотека кодирования : libebml v1.3.0 + libmatroska v1.4.0
Attachements : cover.jpg / small_cover.jpg / cover_land.jpg / small_cover_land.jpg
Видео
Идентификатор : 1
Формат : AVC
Формат/Информация : Advanced Video Codec
Профиль формата : High@L4.1
Параметр CABAC формата : Да
Параметр ReFrames формата : 9 кадров
Идентификатор кодека : V_MPEG4/ISO/AVC
Продолжительность : 58 м. 3 с.
Битрейт : 5522 Кбит/сек
Ширина : 1280 пикселей
Высота : 720 пикселей
Соотношение сторон : 16:9
Режим частоты кадров : Постоянный
Частота кадров : 29,970 кадров/сек
Цветовое пространство : YUV
Субдискретизация насыщенности : 4:2:0
Битовая глубина : 8 бит
Тип развёртки : Прогрессивная
Бит/(Пиксели*Кадры) : 0.200
Размер потока : 2,19 Гбайт (85%)
Заголовок : The Untold History of the United States (USA, 2012) / Нерассказанная история Соединенных Штатов (США, 2012)
Библиотека кодирования : x264 core 129 r2245+704+36 8e61944 tMod+MixAQ [8-bit@4:2:0 X86]
Настройки программы : cabac=1 / ref=9 / deblock=1:-1:-1 / analyse=0x3:0x133 / me=umh / subme=11 / psy=1 / fade_compensate=0.00 / psy_rd=1.05:0.10 / mixed_ref=1 / me_range=32 / chroma_me=1 / trellis=2 / 8x8dct=1 / cqm=0 / deadzone=21,11 / fast_pskip=0 / chroma_qp_offset=-3 / threads=18 / lookahead_threads=3 / sliced_threads=0 / nr=0 / decimate=0 / interlaced=0 / bluray_compat=0 / constrained_intra=0 / fgo=0 / bframes=8 / b_pyramid=2 / b_adapt=2 / b_bias=0 / direct=3 / weightb=1 / open_gop=0 / weightp=2 / keyint=250 / keyint_min=25 / scenecut=40 / intra_refresh=0 / rc_lookahead=50 / rc=2pass / mbtree=1 / bitrate=5522 / ratetol=1.0 / qcomp=0.70 / qpmin=0 / qpmax=69 / qpstep=4 / cplxblur=20.0 / qblur=0.5 / ip_ratio=1.40 / aq=3 / aq-strength=0.80 / aq-sensitivity=10.00 / aq-ifactor=1.00 / aq-pfactor=1.00 / aq-bfactor=1.00 / aq2=0
Язык : English
Default : Да
Forced : Нет
Аудио #1
Идентификатор : 2
Формат : AC-3
Формат/Информация : Audio Coding 3
Расширение режима : CM (complete main)
Параметр Endianness формата : Big
Идентификатор кодека : A_AC3
Продолжительность : 58 м. 3 с.
Вид битрейта : Постоянный
Битрейт : 640 Кбит/сек
Каналы : 6 каналов
Расположение каналов : Front: L C R, Side: L R, LFE
Частота : 48,0 КГц
Битовая глубина : 16 бит
Метод сжатия : С потерями
Размер потока : 266 Мбайт (10%)
Заголовок : Original / AC3, 6 ch, 640 Kbps
Язык : English
Default : Нет
Forced : Нет
Аудио #2
Идентификатор : 3
Формат : AC-3
Формат/Информация : Audio Coding 3
Расширение режима : CM (complete main)
Параметр Endianness формата : Big
Идентификатор кодека : A_AC3
Продолжительность : 58 м. 3 с.
Вид битрейта : Постоянный
Битрейт : 192 Кбит/сек
Каналы : 2 канала
Расположение каналов : Front: L R
Частота : 48,0 КГц
Битовая глубина : 16 бит
Метод сжатия : С потерями
Размер потока : 79,7 Мбайт (3%)
Заголовок : MVO, Channel One Russia / AC3, 2 ch, 192 Kbps
Язык : Russian
Default : Да
Forced : Нет
Текст #1
Идентификатор : 4
Формат : ASS
Идентификатор кодека : S_TEXT/ASS
Идентификатор кодека/Информация : Advanced Sub Station Alpha
Метод сжатия : Без потерь
Заголовок : English
Язык : English
Default : Нет
Forced : Нет
Текст #2
Идентификатор : 5
Формат : ASS
Идентификатор кодека : S_TEXT/ASS
Идентификатор кодека/Информация : Advanced Sub Station Alpha
Метод сжатия : Без потерь
Заголовок : Russian, forced
Язык : Russian
Default : Нет
Forced : Да
Текст #3
Идентификатор : 6
Формат : ASS
Идентификатор кодека : S_TEXT/ASS
Идентификатор кодека/Информация : Advanced Sub Station Alpha
Метод сжатия : Без потерь
Заголовок : Russian, Dori Media Ot Ltd.
Язык : Russian
Default : Нет
Forced : Нет
Текст #4
Идентификатор : 7
Формат : ASS
Идентификатор кодека : S_TEXT/ASS
Идентификатор кодека/Информация : Advanced Sub Station Alpha
Метод сжатия : Без потерь
Заголовок : Chinese, jlpzj.net
Язык : Chinese
Default : Нет
Forced : Нет
Текст #5
Идентификатор : 8
Формат : ASS
Идентификатор кодека : S_TEXT/ASS
Идентификатор кодека/Информация : Advanced Sub Station Alpha
Метод сжатия : Без потерь
Заголовок : Chinese + English, jlpzj.net
Язык : Chinese
Default : Нет
Forced : Нет

Chapter 10. Bush & Obama: Age of Terror / Эпизод 10. Буш и Обама: Эпоха ужаса

Общее
Уникальный идентификатор : 186415102709747578573187780211000629153 (0x8C3E3E2ABA48923B9DCC7E38879E57A1)
Полное имя : C:\The Untold History of the United States E10 (2012).AVC.720p.AC3x2.SUBx5.BDRip.mkv
Формат : Matroska
Версия формата : Version 4 / Version 2
Размер файла : 2,58 Гбайт
Продолжительность : 58 м. 32 с.
Общий поток : 6310 Кбит/сек
Название фильма : Chapter 10. Bush & Obama: Age of Terror / Эпизод 10. Буш и Обама: Эпоха ужаса
Дата кодирования : UTC 2010-02-22 21:41:31
Программа кодирования : mkvmerge v5.9.0 ('On The Loose') built on Dec 9 2012 15:37:01
Библиотека кодирования : libebml v1.3.0 + libmatroska v1.4.0
Attachements : cover.jpg / small_cover.jpg / cover_land.jpg / small_cover_land.jpg
Видео
Идентификатор : 1
Формат : AVC
Формат/Информация : Advanced Video Codec
Профиль формата : High@L4.1
Параметр CABAC формата : Да
Параметр ReFrames формата : 9 кадров
Идентификатор кодека : V_MPEG4/ISO/AVC
Продолжительность : 58 м. 32 с.
Битрейт : 5470 Кбит/сек
Ширина : 1280 пикселей
Высота : 720 пикселей
Соотношение сторон : 16:9
Режим частоты кадров : Постоянный
Частота кадров : 29,970 кадров/сек
Цветовое пространство : YUV
Субдискретизация насыщенности : 4:2:0
Битовая глубина : 8 бит
Тип развёртки : Прогрессивная
Бит/(Пиксели*Кадры) : 0.198
Размер потока : 2,19 Гбайт (85%)
Заголовок : The Untold History of the United States (USA, 2012) / Нерассказанная история Соединенных Штатов (США, 2012)
Библиотека кодирования : x264 core 124 r2197+666+28 3970b70 tMod+MixAQ [8-bit@4:2:0 X86]
Настройки программы : cabac=1 / ref=9 / deblock=1:-1:-1 / analyse=0x3:0x133 / me=umh / subme=11 / psy=1 / fade_compensate=0.00 / psy_rd=1.05:0.10 / mixed_ref=1 / me_range=32 / chroma_me=1 / trellis=2 / 8x8dct=1 / cqm=0 / deadzone=21,11 / fast_pskip=0 / chroma_qp_offset=-3 / threads=12 / sliced_threads=0 / nr=0 / decimate=0 / interlaced=0 / bluray_compat=0 / constrained_intra=0 / fgo=0 / bframes=8 / b_pyramid=2 / b_adapt=2 / b_bias=0 / direct=3 / weightb=1 / open_gop=0 / weightp=2 / keyint=250 / keyint_min=25 / scenecut=40 / intra_refresh=0 / rc_lookahead=50 / rc=2pass / mbtree=1 / bitrate=5470 / ratetol=1.0 / qcomp=0.70 / qpmin=0 / qpmax=69 / qpstep=4 / cplxblur=20.0 / qblur=0.5 / ip_ratio=1.40 / aq=3 / aq-strength=0.80 / aq-sensitivity=10.00 / aq-ifactor=1.00 / aq-pfactor=1.00 / aq-bfactor=1.00 / aq2=0
Язык : English
Default : Да
Forced : Нет
Аудио #1
Идентификатор : 2
Формат : AC-3
Формат/Информация : Audio Coding 3
Расширение режима : CM (complete main)
Параметр Endianness формата : Big
Идентификатор кодека : A_AC3
Продолжительность : 58 м. 32 с.
Вид битрейта : Постоянный
Битрейт : 640 Кбит/сек
Каналы : 6 каналов
Расположение каналов : Front: L C R, Side: L R, LFE
Частота : 48,0 КГц
Битовая глубина : 16 бит
Метод сжатия : С потерями
Размер потока : 268 Мбайт (10%)
Заголовок : Original / AC3, 6 ch, 640 Kbps
Язык : English
Default : Нет
Forced : Нет
Аудио #2
Идентификатор : 3
Формат : AC-3
Формат/Информация : Audio Coding 3
Расширение режима : CM (complete main)
Параметр Endianness формата : Big
Идентификатор кодека : A_AC3
Продолжительность : 58 м. 32 с.
Вид битрейта : Постоянный
Битрейт : 192 Кбит/сек
Каналы : 2 канала
Расположение каналов : Front: L R
Частота : 48,0 КГц
Битовая глубина : 16 бит
Метод сжатия : С потерями
Размер потока : 80,4 Мбайт (3%)
Заголовок : MVO, Channel One Russia / AC3, 2 ch, 192 Kbps
Язык : Russian
Default : Да
Forced : Нет
Текст #1
Идентификатор : 4
Формат : ASS
Идентификатор кодека : S_TEXT/ASS
Идентификатор кодека/Информация : Advanced Sub Station Alpha
Метод сжатия : Без потерь
Заголовок : English
Язык : English
Default : Нет
Forced : Нет
Текст #2
Идентификатор : 5
Формат : ASS
Идентификатор кодека : S_TEXT/ASS
Идентификатор кодека/Информация : Advanced Sub Station Alpha
Метод сжатия : Без потерь
Заголовок : Russian, forced
Язык : Russian
Default : Нет
Forced : Да
Текст #3
Идентификатор : 6
Формат : ASS
Идентификатор кодека : S_TEXT/ASS
Идентификатор кодека/Информация : Advanced Sub Station Alpha
Метод сжатия : Без потерь
Заголовок : Russian, Dori Media Ot Ltd.
Язык : Russian
Default : Нет
Forced : Нет
Текст #4
Идентификатор : 7
Формат : ASS
Идентификатор кодека : S_TEXT/ASS
Идентификатор кодека/Информация : Advanced Sub Station Alpha
Метод сжатия : Без потерь
Заголовок : Chinese, jlpzj.net
Язык : Chinese
Default : Нет
Forced : Нет
Текст #5
Идентификатор : 8
Формат : ASS
Идентификатор кодека : S_TEXT/ASS
Идентификатор кодека/Информация : Advanced Sub Station Alpha
Метод сжатия : Без потерь
Заголовок : Chinese + English, jlpzj.net
Язык : Chinese
Default : Нет
Forced : Нет

Episode A. World War I, The Russian Revolution & Woodrow Wilson / Эпизод A. Первая мировая война, Русская революция и Вудро Вильсон

Общее
Уникальный идентификатор : 185485352254515879265906347078811592009 (0x8B8B2DEE27E08ECF9450D5507CAB2549)
Полное имя : C:\The Untold History of the United States SPA (2013).AVC.720p.AC3.SUB.BDRip.mkv
Формат : Matroska
Версия формата : Version 4 / Version 2
Размер файла : 2,50 Гбайт
Продолжительность : 57 м. 41 с.
Общий поток : 6205 Кбит/сек
Название фильма : Episode A. World War I, The Russian Revolution & Woodrow Wilson
Дата кодирования : UTC 2010-02-22 21:41:31
Программа кодирования : mkvmerge v5.9.0 ('On The Loose') built on Dec 9 2012 15:37:01
Библиотека кодирования : libebml v1.3.0 + libmatroska v1.4.0
Attachements : cover.jpg / small_cover.jpg / cover_land.jpg / small_cover_land.jpg
Видео
Идентификатор : 1
Формат : AVC
Формат/Информация : Advanced Video Codec
Профиль формата : High@L4.1
Параметр CABAC формата : Да
Параметр ReFrames формата : 9 кадров
Идентификатор кодека : V_MPEG4/ISO/AVC
Продолжительность : 57 м. 41 с.
Битрейт : 5560 Кбит/сек
Ширина : 1280 пикселей
Высота : 720 пикселей
Соотношение сторон : 16:9
Режим частоты кадров : Постоянный
Частота кадров : 29,970 кадров/сек
Цветовое пространство : YUV
Субдискретизация насыщенности : 4:2:0
Битовая глубина : 8 бит
Тип развёртки : Прогрессивная
Бит/(Пиксели*Кадры) : 0.201
Размер потока : 2,19 Гбайт (88%)
Заголовок : The Untold History of the United States (USA, 2013)
Библиотека кодирования : x264 core 129 r2245+704+36 8e61944 tMod+MixAQ [8-bit@4:2:0 X86]
Настройки программы : cabac=1 / ref=9 / deblock=1:-1:-1 / analyse=0x3:0x133 / me=umh / subme=11 / psy=1 / fade_compensate=0.00 / psy_rd=1.05:0.10 / mixed_ref=1 / me_range=32 / chroma_me=1 / trellis=2 / 8x8dct=1 / cqm=0 / deadzone=21,11 / fast_pskip=0 / chroma_qp_offset=-3 / threads=18 / lookahead_threads=3 / sliced_threads=0 / nr=0 / decimate=0 / interlaced=0 / bluray_compat=0 / constrained_intra=0 / fgo=0 / bframes=8 / b_pyramid=2 / b_adapt=2 / b_bias=0 / direct=3 / weightb=1 / open_gop=0 / weightp=2 / keyint=250 / keyint_min=25 / scenecut=40 / intra_refresh=0 / rc_lookahead=50 / rc=2pass / mbtree=1 / bitrate=5560 / ratetol=1.0 / qcomp=0.70 / qpmin=0 / qpmax=69 / qpstep=4 / cplxblur=20.0 / qblur=0.5 / ip_ratio=1.40 / aq=3 / aq-strength=0.80 / aq-sensitivity=10.00 / aq-ifactor=1.00 / aq-pfactor=1.00 / aq-bfactor=1.00 / aq2=0
Язык : English
Default : Да
Forced : Нет
Аудио
Идентификатор : 2
Формат : AC-3
Формат/Информация : Audio Coding 3
Расширение режима : CM (complete main)
Параметр Endianness формата : Big
Идентификатор кодека : A_AC3
Продолжительность : 57 м. 41 с.
Вид битрейта : Постоянный
Битрейт : 640 Кбит/сек
Каналы : 2 канала
Расположение каналов : Front: L R
Частота : 48,0 КГц
Битовая глубина : 16 бит
Метод сжатия : С потерями
Размер потока : 264 Мбайт (10%)
Заголовок : Original / AC3, 6 ch, 640 Kbps
Язык : English
Default : Да
Forced : Нет
Текст
Идентификатор : 3
Формат : ASS
Идентификатор кодека : S_TEXT/ASS
Идентификатор кодека/Информация : Advanced Sub Station Alpha
Метод сжатия : Без потерь
Заголовок : English, SDH
Язык : English
Default : Нет
Forced : Нет
Общее
Уникальный идентификатор : 247947323929983377309987439289424450062 (0xBA88EAE670C7A092956A348317BC920E)
Полное имя : C:\The Untold History of the United States SPB (2013).AVC.720p.AC3.SUB.BDRip.mkv
Формат : Matroska
Версия формата : Version 4 / Version 2
Размер файла : 2,50 Гбайт
Продолжительность : 56 м. 13 с.
Общий поток : 6367 Кбит/сек
Название фильма : Episode B. 1920-1940, Roosevelt, Hitler, Stalin: The Battle of Ideas
Дата кодирования : UTC 2010-02-22 21:41:31
Программа кодирования : mkvmerge v5.9.0 ('On The Loose') built on Dec 9 2012 15:37:01
Библиотека кодирования : libebml v1.3.0 + libmatroska v1.4.0
Attachements : cover.jpg / small_cover.jpg / cover_land.jpg / small_cover_land.jpg
Видео
Идентификатор : 1
Формат : AVC
Формат/Информация : Advanced Video Codec
Профиль формата : High@L4.1
Параметр CABAC формата : Да
Параметр ReFrames формата : 9 кадров
Идентификатор кодека : V_MPEG4/ISO/AVC
Продолжительность : 56 м. 13 с.
Битрейт : 5722 Кбит/сек
Ширина : 1280 пикселей
Высота : 720 пикселей
Соотношение сторон : 16:9
Режим частоты кадров : Постоянный
Частота кадров : 29,970 кадров/сек
Цветовое пространство : YUV
Субдискретизация насыщенности : 4:2:0
Битовая глубина : 8 бит
Тип развёртки : Прогрессивная
Бит/(Пиксели*Кадры) : 0.207
Размер потока : 2,20 Гбайт (88%)
Заголовок : The Untold History of the United States (USA, 2013)
Библиотека кодирования : x264 core 124 r2197+666+28 3970b70 tMod+MixAQ [8-bit@4:2:0 X86]
Настройки программы : cabac=1 / ref=9 / deblock=1:-1:-1 / analyse=0x3:0x133 / me=umh / subme=11 / psy=1 / fade_compensate=0.00 / psy_rd=1.05:0.10 / mixed_ref=1 / me_range=32 / chroma_me=1 / trellis=2 / 8x8dct=1 / cqm=0 / deadzone=21,11 / fast_pskip=0 / chroma_qp_offset=-3 / threads=12 / sliced_threads=0 / nr=0 / decimate=0 / interlaced=0 / bluray_compat=0 / constrained_intra=0 / fgo=0 / bframes=8 / b_pyramid=2 / b_adapt=2 / b_bias=0 / direct=3 / weightb=1 / open_gop=0 / weightp=2 / keyint=250 / keyint_min=25 / scenecut=40 / intra_refresh=0 / rc_lookahead=50 / rc=2pass / mbtree=1 / bitrate=5722 / ratetol=1.0 / qcomp=0.70 / qpmin=0 / qpmax=69 / qpstep=4 / cplxblur=20.0 / qblur=0.5 / ip_ratio=1.40 / aq=3 / aq-strength=0.80 / aq-sensitivity=10.00 / aq-ifactor=1.00 / aq-pfactor=1.00 / aq-bfactor=1.00 / aq2=0
Язык : English
Default : Да
Forced : Нет
Аудио
Идентификатор : 2
Формат : AC-3
Формат/Информация : Audio Coding 3
Расширение режима : CM (complete main)
Параметр Endianness формата : Big
Идентификатор кодека : A_AC3
Продолжительность : 56 м. 13 с.
Вид битрейта : Постоянный
Битрейт : 640 Кбит/сек
Каналы : 2 канала
Расположение каналов : Front: L R
Частота : 48,0 КГц
Битовая глубина : 16 бит
Метод сжатия : С потерями
Размер потока : 257 Мбайт (10%)
Заголовок : Original / AC3, 6 ch, 640 Kbps
Язык : English
Default : Да
Forced : Нет
Текст
Идентификатор : 3
Формат : ASS
Идентификатор кодека : S_TEXT/ASS
Идентификатор кодека/Информация : Advanced Sub Station Alpha
Метод сжатия : Без потерь
Заголовок : English, SDH
Язык : English
Default : Нет
Forced : Нет

Bonus Documentary. A Conversation with History: Tariq Ali And Oliver Stone / Дополнение. Разговор с историей: Тарик Али и Оливер Стоун

Общее
Уникальный идентификатор : 182210771592906893124969422648379405947 (0x891484A3844C89BE9B61D8E8E46F767B)
Полное имя : C:\The Untold History of the United States SPC (2013).AVC.720p.AC3.SUB.BDRip.mkv
Формат : Matroska
Версия формата : Version 4 / Version 2
Размер файла : 4,50 Гбайт
Продолжительность : 1 ч. 42 м. 16 с.
Общий поток : 6300 Кбит/сек
Название фильма : Bonus Documentary. A Conversation with History: Tariq Ali And Oliver Stone
Дата кодирования : UTC 2010-02-22 21:41:31
Программа кодирования : mkvmerge v5.9.0 ('On The Loose') built on Dec 9 2012 15:37:01
Библиотека кодирования : libebml v1.3.0 + libmatroska v1.4.0
Attachements : cover.jpg / small_cover.jpg / cover_land.jpg / small_cover_land.jpg
Видео
Идентификатор : 1
Формат : AVC
Формат/Информация : Advanced Video Codec
Профиль формата : High@L4.1
Параметр CABAC формата : Да
Параметр ReFrames формата : 9 кадров
Идентификатор кодека : V_MPEG4/ISO/AVC
Продолжительность : 1 ч. 42 м. 16 с.
Битрейт : 5656 Кбит/сек
Ширина : 1280 пикселей
Высота : 720 пикселей
Соотношение сторон : 16:9
Режим частоты кадров : Постоянный
Частота кадров : 29,970 кадров/сек
Цветовое пространство : YUV
Субдискретизация насыщенности : 4:2:0
Битовая глубина : 8 бит
Тип развёртки : Прогрессивная
Бит/(Пиксели*Кадры) : 0.205
Размер потока : 3,95 Гбайт (88%)
Заголовок : The Untold History of the United States (USA, 2013)
Библиотека кодирования : x264 core 129 r2245+704+36 8e61944 tMod+MixAQ [8-bit@4:2:0 X86]
Настройки программы : cabac=1 / ref=9 / deblock=1:-2:-2 / analyse=0x3:0x133 / me=umh / subme=11 / psy=1 / fade_compensate=0.00 / psy_rd=1.05:0.10 / mixed_ref=1 / me_range=32 / chroma_me=1 / trellis=2 / 8x8dct=1 / cqm=0 / deadzone=21,11 / fast_pskip=0 / chroma_qp_offset=-3 / threads=18 / lookahead_threads=3 / sliced_threads=0 / nr=0 / decimate=0 / interlaced=0 / bluray_compat=0 / constrained_intra=0 / fgo=0 / bframes=8 / b_pyramid=2 / b_adapt=2 / b_bias=0 / direct=3 / weightb=1 / open_gop=0 / weightp=2 / keyint=250 / keyint_min=25 / scenecut=40 / intra_refresh=0 / rc_lookahead=50 / rc=2pass / mbtree=1 / bitrate=5656 / ratetol=1.0 / qcomp=0.70 / qpmin=0 / qpmax=69 / qpstep=4 / cplxblur=20.0 / qblur=0.5 / ip_ratio=1.40 / aq=3 / aq-strength=0.90 / aq-sensitivity=10.00 / aq-ifactor=1.00 / aq-pfactor=1.00 / aq-bfactor=1.00 / aq2=0
Язык : English
Default : Да
Forced : Нет
Аудио
Идентификатор : 2
Формат : AC-3
Формат/Информация : Audio Coding 3
Расширение режима : CM (complete main)
Параметр Endianness формата : Big
Идентификатор кодека : A_AC3
Продолжительность : 1 ч. 42 м. 16 с.
Вид битрейта : Постоянный
Битрейт : 640 Кбит/сек
Каналы : 2 канала
Расположение каналов : Front: L R
Частота : 48,0 КГц
Битовая глубина : 16 бит
Метод сжатия : С потерями
Размер потока : 468 Мбайт (10%)
Заголовок : Original / AC3, 6 ch, 640 Kbps
Язык : English
Default : Да
Forced : Нет
Текст
Идентификатор : 3
Формат : ASS
Идентификатор кодека : S_TEXT/ASS
Идентификатор кодека/Информация : Advanced Sub Station Alpha
Метод сжатия : Без потерь
Заголовок : English, SDH
Язык : English
Default : Нет
Forced : Нет

Скриншоты

[Профиль] [ЛС]
Показать сообщения:    

Текущее время: Сегодня 06:06

Часовой пояс: GMT



Вы не можете начинать темы
Вы не можете отвечать на сообщения
Вы не можете редактировать свои сообщения
Вы не можете удалять свои сообщения
Вы не можете голосовать в опросах
Вы не можете прикреплять файлы к сообщениям
Вы не можете скачивать файлы