Неразрезанные страницы [01-04 из 04] (2015) SATRip

 
Автор Сообщение

BOSS ®

Пол:

Стаж: 2 года 2 месяца

Сообщений: 3750

Откуда: ODESSA



Награды: 20 (Подробнее)

Top Seeder 3 (Количество: 1) Top Keeper 3 (Количество: 1) Top Releaser 3 (Количество: 1)
Торрент-статистика

Создавать темы 03-Окт-2015 14:21

[Цитировать]

Информация о фильме
Название: Неразрезанные страницы
Год выхода: 2015
Режиссер: Петр Амелин
В ролях: Павел Трубинер, Кристина Бабушкина, Наталья Высочанская, Олег Андреев, Ирина Соколова (II), Сергей Паршин, Максим Фомин, Ирина Полянская, Иван Ожогин, Владимир Колганов, Всеволод Цурило, Наталья Кутасова, Вера Шпак, Ксения Лукьянчикова, Анна Лапина, Валентина Савчук, Мария Мясникова, Ярослав Воронцов, Дмитрий Сутырин, Геша Меньшиков, Алексей Зубков, Надежда Шумилова, Александр Рыбаков, Александр Мойса, Людмила Бояринова
О фильме:
Алекс Шан-Гирей считает, что должен снова вернуть себя и обрести свободу. И потому расстается с Маней Поливановой – женщиной всей своей жизни, а по совместительству автором популярных детективов. В его жизни никто не вправе занимать столько места. Он – Алекс Шан-Гирей – не выносит несвободы. А Маня Поливанова совершенно не выносит вранья и человеческих мучений. И если уж Алекс почему-то решил "освободиться" – Пожалуйста! Ей нужно спасать Владимира Берегового – главу IT-отдела издательства "ЛИАННА", который попадает в мистическую историю с исчезнувшим трупом. Труп испаряется из дома телеведущего Сергея Балашова, а оказывается в багажнике машины Берегового. Только это труп другого человека. Да и тот злосчастный дом, как выясняется, вовсе не Балашова…
Страна: Россия
Продолжительность: ~ 00:44:00
Перевод: Не требуется
Файл
Кодек: XviD
Качество: SATRip
Видео: 720x448 (1.61:1), 25 fps, XviD build 50 ~1800 kbps avg, 0.22 bit/pixel
Звук: 48 kHz, MPEG Layer 3, 2 ch, ~128.00 kbps avg

Скриншоты

MediaInfo

Общее
Полное имя : D:Nerazrezannye.stranicy.SATRipNerazrezannye.stranicy.01.SATRip.avi
Формат : AVI
Формат/Информация : Audio Video Interleave
Размер файла : 606 Мбайт
Продолжительность : 43 м.
Общий поток : 1938 Кбит/сек
Программа кодирования : VirtualDubMod 1.5.10.3 | www.virtualdub-fr.org || (build 2550/release)
Библиотека кодирования : VirtualDubMod build 2550/release
Видео
Идентификатор : 0
Формат : MPEG-4 Visual
Профиль формата : Advanced Simple@L5
Параметр BVOP формата : 2
Параметр QPel формата : Нет
Параметр GMC формата : Без точки перехода
Параметр матрицы формата : Default (MPEG)
Идентификатор кодека : XVID
Идентификатор кодека/Подсказка : XviD
Продолжительность : 43 м.
Битрейт : 1800 Кбит/сек
Ширина : 720 пикселей
Высота : 448 пикселей
Соотношение сторон : 16:10
Частота кадров : 25,000 кадров/сек
Цветовое пространство : YUV
Субдискретизация насыщенности : 4:2:0
Битовая глубина : 8 бит
Тип развёртки : Прогрессивная
Метод сжатия : С потерями
Бит/(Пиксели*Кадры) : 0.223
Размер потока : 563 Мбайт (93%)
Библиотека кодирования : XviD 1.2.1 (UTC 2008-12-04)
Аудио
Идентификатор : 1
Формат : MPEG Audio
Версия формата : Version 1
Профиль формата : Layer 3
Режим : Joint stereo
Расширение режима : MS Stereo
Идентификатор кодека : 55
Идентификатор кодека/Подсказка : MP3
Продолжительность : 43 м.
Вид битрейта : Постоянный
Битрейт : 128 Кбит/сек
Каналы : 2 канала
Частота : 48,0 КГц
Метод сжатия : С потерями
Размер потока : 40,1 Мбайт (7%)
Выравнивание : Соединение по промежуткам
Продолжительность промежутка : 40 мс. (1,00 видеокадр)
Время предзагрузки промежутка : 504 мс.
Библиотека кодирования : LAME3.99r
Настройки программы : -m j -V 4 -q 2 -lowpass 17 -b 128
[Профиль] [ЛС]
Показать сообщения:    

Текущее время: Сегодня 11:02

Часовой пояс: GMT



Вы не можете начинать темы
Вы не можете отвечать на сообщения
Вы не можете редактировать свои сообщения
Вы не можете удалять свои сообщения
Вы не можете голосовать в опросах
Вы не можете прикреплять файлы к сообщениям
Вы не можете скачивать файлы