Непутёвая учеба / The Bad Education Movie (Эллиот Хегарти / Elliot Hegarty) [2015, Великобритания, комедия, HDRip] MVO (Paradox & Omskbird records)

 
Автор Сообщение

TorrentFilm ®

Пол:

Стаж: 2 года

Сообщений: 7741



Награды: Нет

Торрент-статистика

Создавать темы 04-Янв-2016 00:12

[Цитировать]

Непутёвая учеба / The Bad Education Movie
Страна: Великобритания
Жанр: комедия
Год выпуска: 2015
Продолжительность: 01:30:43
Перевод: Любительский (многоголосый закадровый) Paradox & Omskbird records
Cубтитры: нет
Режиссер: Эллиот Хегарти / Elliot Hegarty
В ролях: Кае Александр, Мишель Гомес, Никки Рунэклс, Сара Солемани, Джек Бенс, Джэк Уайтхолл, Лейла Хоффман, Мэтью Хорн, Этан Лоуренс, Чарли Уэрнэм
Описание: Альфи Уикерс — самый ужасный учитель в истории человечества. Мало того, что он ничего не знает и ничему не учит, так еще и постоянно вляпывается в дурацкие истории и втягивает в них своих учеников. Они, впрочем, вполне достойны своего учителя. Редкостные оболтусы. Вот, отправились они на экскурсию в Корнуолл, но вместо осмотра достопримечательностей, веселая компания оказалась втянута в государственный переворот...
Роли озвучивали: Алёна Сколова, Паевл Ярощик, Алексей Гнеушев, Сергей Науменко
Сэмпл: http://multi-up.com/1081221
Качество видео: HDRip
Формат видео: AVI
Видео: 720x384 (1.88:1), 23.976 fps, XviD build 73 ~1838 kbps avg, 0.28 bit/pixel
Аудио: 48 kHz, AC3 Dolby Digital, 3/2 (L,C,R,l,r) + LFE ch, ~448 kbps

MediaInfo

Формат : AVI
Формат/Информация : Audio Video Interleave
Размер файла : 1,45 Гбайт
Продолжительность : 1 ч. 30 м.
Общий поток : 2296 Кбит/сек
Программа кодирования : VirtualDubMod 1.5.10.3 | www.virtualdub-fr.org || (build 2550/release)
Библиотека кодирования : VirtualDubMod build 2550/release
Видео
Идентификатор : 0
Формат : MPEG-4 Visual
Профиль формата : Advanced Simple@L5
Параметр BVOP формата : 1
Параметр QPel формата : Нет
Параметр GMC формата : Без точки перехода
Параметр матрицы формата : Выборочная
Идентификатор кодека : XVID
Идентификатор кодека/Подсказка : XviD
Продолжительность : 1 ч. 30 м.
Битрейт : 1838 Кбит/сек
Ширина : 720 пикселей
Высота : 384 пикселя
Соотношение сторон : 1,85:1
Частота кадров : 23,976 (23976/1000) кадра/сек
Цветовое пространство : YUV
Субдискретизация насыщенности : 4:2:0
Битовая глубина : 8 бит
Тип развёртки : Прогрессивная
Метод сжатия : С потерями
Бит/(Пиксели*Кадры) : 0.277
Размер потока : 1,16 Гбайт (80%)
Библиотека кодирования : XviD 73
Аудио
Идентификатор : 1
Формат : AC-3
Формат/Информация : Audio Coding 3
Расширение режима : CM (complete main)
Параметр Endianness формата : Big
Идентификатор кодека : 2000
Продолжительность : 1 ч. 30 м.
Вид битрейта : Постоянный
Битрейт : 448 Кбит/сек
Каналы : 6 каналов
Расположение каналов : Front: L C R, Side: L R, LFE
Частота : 48,0 КГц
Частота кадров : 31,250 кадров/сек (1536 spf)
Метод сжатия : С потерями
Размер потока : 291 Мбайт (20%)
Выравнивание : Разделение по промежуткам
Продолжительность промежутка : 42 мс. (1,00 видеокадр)
Время предзагрузки промежутка : 500 мс.

Скриншоты

[Профиль] [ЛС]
Кто просматривает тему:

Форум Тема Автор Размер
Документальные HD «Непутевые заметки» с Дмитрием Крыловым - ** выпусков - зима, весна [2015 г., Документальное кино, HDTV 1080i] TorrentFilm 1.03 GB
Документальные HD «Непутевые заметки» с Дмитрием Крыловым - ** выпусков - лето, осень [2015 г., Документальное кино, HDTV 1080i] TorrentFilm 1.06 GB
Документальные HD «Непутевые заметки» с Дмитрием Крыловым - 23 выпуска - лето, осень [2014 г., Документальное кино, HDTV 1080i] TorrentFilm 24.04 GB
Фильмы (HD Rips | 720p, 1080p) Непутёвая учеба / The Bad Education Movie (2015) BDRip 720p | L, L2 достали все 4.94 GB
Фильмы 2015 года Непутёвая учеба / The Bad Education Movie (2015) HDRip | L BOSS 1.45 GB
Фильмы 2015 года Непутёвая учеба / The Bad Education Movie (2015) HDRip | L2 BOSS 1.45 GB
Фильмы 2015 года Непутёвая учёба / Дурное Воспитание / The Bad Education Movie (Эллиот Хегарти / Elliot Hegarty) [2015 г., комедия, DVDRip] DVO (SNK-TV) + Original + Rus Subs TorrentFilm 1.68 GB
Документальные HD Непутевые заметки с Дмитрием Крыловым (Дмитрий Крылов) [2014, документальный, HDTV 720p + WEBRip] TorrentFilm 8.19 GB
Показать сообщения:    

Текущее время: Сегодня 05:15

Часовой пояс: GMT



Вы не можете начинать темы
Вы не можете отвечать на сообщения
Вы не можете редактировать свои сообщения
Вы не можете удалять свои сообщения
Вы не можете голосовать в опросах
Вы не можете прикреплять файлы к сообщениям
Вы не можете скачивать файлы