«Непутевые заметки» с Дмитрием Крыловым - ** выпусков - лето, осень [2015 г., Документальное кино, HDTV 1080i]

 
Автор Сообщение

TorrentFilm ®

Пол:

Стаж: 2 года

Сообщений: 7741



Награды: Нет

Торрент-статистика

Создавать темы 09-Июн-2015 00:04

[Цитировать]

«Непутевые заметки» с Дмитрием Крыловым
Год выпуска: 2015
Страна: Россия
Жанр: Документальное кино
Продолжительность: ~00:16:00
Режиссер: Дмитрий Крылов
Описание: Телевизионный путеводитель по странам и континентам.
Авторская программа Дмитрия Крылова "Непутевые заметки" появилась на Первом канале Центрального Телевидения в начале 1991 года. Первый 4-х серийный фильм назывался "Непутевые заметки или ИЗ ЛОНДОНА С ЛЮБОВЬЮ". На фоне официоза международной тележурналистики "Непутевые заметки" сразу же привлекли к себе внимание. Зрителям импонировал субъективный и непредвзятый взгляд на жизнь Запада, временами наивный, иногда ироничный. Автор вовсе не выдавал себя за знатока заграничной жизни. Поэтому при просмотре у зрителей возникала иллюзия, что это они сами открывают для себя закрытые стороны жизни ДРУГОГО мира.
В течение 5-ти "Непутевые заметки" выходили периодически по мере появления новых материалов. После фильма о Лондоне вышли фильмы о Западном Берлине, о Средиземноморских круизах и прибрежных городах и странах – Стамбуле, Афинах, Мальте, Венеции, Барселоне, Риме, Неаполе, Генуе, Ницце, Сицилии. Затем у автора начался "американский" период – 12-серийный фильм "Путешествие с Соней в поисках Америки" (Ю.Флорида, Нью-Йорк и Бостон). Особое внимание зрителей привлек фильм о Дании, в котором помимо авторского "взрослого" взгляда на страну был представлен еще и детский взгляд шестилетнего мальчика Мити, сына автора. Потом к этому приему автор обращался еще несколько раз, вместе с сыном рассказывая о поездке на греческие острова, а также в "Дисней Уолд" в Орландо и о Карибском круизе.
С начала 1996 года "Непутевые заметки" стали выходить на Первом канале регулярно. За время своего существования съемочная группа программы "Непутевые заметки" побывала в различных уголках нашей планеты, а в 2002 году она добралась и до Северного Полюса.
Качество: HDTV 1080i
Формат: MPEG-TS
Видео кодек: H.264
Аудио кодек: АС3
Видео: MPEG4 Video (H264) 1920x1080, 25fps, ~8500 Кбит/сек
Аудио: 384 Kbps : 6сн : 48,0 КГц
Все серии в раздаче имеют схожие технические характеристики.

Скриншоты

МИ

Общее
Идентификатор : 1 (0x1)
Полное имя : E:\Непутёвые заметки - лето, осень 2015\Непутёвые заметки 2015-06-07_bySat.ts
Формат : MPEG-TS
Размер файла : 1,06 Гбайт
Продолжительность : 14 м.
Режим общего битрейта : Переменный
Общий поток : 10,3 Мбит/сек
Видео
Идентификатор : 305 (0x131)
Идентификатор меню : 1 (0x1)
Формат : AVC
Формат/Информация : Advanced Video Codec
Профиль формата : Main@L4.0
Параметр CABAC формата : Да
Параметр ReFrames формата : 4 кадра
Идентификатор кодека : 27
Продолжительность : 14 м.
Битрейт : 9384 Кбит/сек
Ширина : 1920 пикселей
Высота : 1080 пикселей
Соотношение сторон : 16:9
Частота кадров : 25,000 кадров/сек
Стандарт вещания : Component
Цветовое пространство : YUV
Субдискретизация насыщенности : 4:2:0
Битовая глубина : 8 бит
Тип развёртки : Чересстрочная
Порядок развёртки : Верхнее поле первое
Бит/(Пиксели*Кадры) : 0.181
Размер потока : 993 Мбайт (91%)
Основные цвета : BT.709
Характеристики трансфера : BT.709
Коэффициенты матрицы : BT.709
colour_range : Limited
Аудио
Идентификатор : 415 (0x19F)
Идентификатор меню : 1 (0x1)
Формат : AC-3
Формат/Информация : Audio Coding 3
Расширение режима : CM (complete main)
Параметр Endianness формата : Big
Идентификатор кодека : 6
Продолжительность : 14 м.
Вид битрейта : Постоянный
Битрейт : 384 Кбит/сек
Каналы : 6 каналов
Расположение каналов : Front: L C R, Side: L R, LFE
Частота : 48,0 КГц
Битовая глубина : 16 бит
Метод сжатия : С потерями
Задержка видео : -40 мс.
Размер потока : 40,6 Мбайт (4%)
Язык : Russian
Текст
Идентификатор : 505 (0x1F9)-888
Идентификатор меню : 1 (0x1)
Формат : Teletext Subtitle
Язык : Russian
Меню
Идентификатор : 256 (0x100)
Идентификатор меню : 1 (0x1)
Продолжительность : 14 м.
Список : 305 (0x131) (AVC) / 415 (0x19F) (AC-3, Russian) / 505 (0x1F9) ()
Язык : / Russian
Специально для раздачи от Lexor - там и список серий.
[Профиль] [ЛС]
Показать сообщения:    

Текущее время: Сегодня 13:47

Часовой пояс: GMT



Вы не можете начинать темы
Вы не можете отвечать на сообщения
Вы не можете редактировать свои сообщения
Вы не можете удалять свои сообщения
Вы не можете голосовать в опросах
Вы не можете прикреплять файлы к сообщениям
Вы не можете скачивать файлы