Непрощенный / Unforgiven (Клинт Иствуд) [1992 г., вестерн, драма, BDRip-AVC] [DUB (Варус Видео)]

 
Автор Сообщение

Bathory ®

Пол:

Стаж: 1 год 7 месяцев

Сообщений: 318



Награды: 3 (Подробнее)

Друг (Количество: 1) Girls (Количество: 1) За внесенный вклад в развитие сайта (Количество: 1)
Торрент-статистика

Создавать темы 07-Авг-2017 10:05

[Цитировать]

Непрощенный / Unforgiven- Информация о фильме
Название: Непрощенный
Оригинальное название: Unforgiven
Год выхода: 1992
Жанр: вестерн, драма
Режиссер: Клинт Иствуд
В ролях: Клинт Иствуд, Джин Хэкмен, Морган Фриман, Ричард Харрис, Джеймс Вулветт, Сауль Рубинек, Фрэнсис Фишер, Анна Ливайн, Дэвид Муччи, Роб Кэмпбелл
О фильме:
Это история Уильяма Мунни — бывшего хладнокровного убийцы, нашедшего в себе силы покончить с грязным ремеслом. Он стал фермером, завел семью. Но все складывается совсем не так, как хотелось…

Страна: США
Студия: Warner Bros., Malpaso Productions
Продолжительность: 02:10:41
Перевод: Дубляж (Варус Видео)
Файл
Кодек: AVC
Качество: BDRip-AVC |BDRemux 1080p|
Видео: 728x304, 732 kbps, 23,976 fps, 0,138 Bits/(Pixel*Frame)
Звук: AAC, 48 kHz, 2 ch, 64 kbps
Субтитры: русские, английские

MI

Общее
Unique ID : 186301246572570685758477133585328671850 (0x8C2850A03D9BAADFBF9B1D8876248C6A)
Complete name : D:\Unforgiven.1992.BDRip-AVC.MegaPeer.mkv
Format : Matroska
Format version : Version 4 / Version 2
File size : 746 Мбайт
Duration : 2 ч. 10 м.
Overall bit rate : 798 Кбит/сек
Movie name : Unforgiven.1992.BDRemux.1080p.CEE.25th.anniversary.edition.matered.in.4K
Encoded date : UTC 2017-08-07 09:43:00
Writing application : mkvmerge v14.0.0 ('Flow') 64bit
Writing library : libebml v1.3.4 + libmatroska v1.4.5
Видео
ID : 1
Format : AVC
Format/Info : Advanced Video Codec
Format profile : High@L4.1
Format settings, CABAC : Да
Format settings, ReFrames : 12 кадров
Codec ID : V_MPEG4/ISO/AVC
Duration : 2 ч. 10 м.
Bit rate : 732 Кбит/сек
Width : 728 пикселей
Height : 304 пикселя
Display aspect ratio : 2,40:1
Frame rate mode : Постоянный
Frame rate : 23,976 (24000/1001) кадра/сек
Color space : YUV
Chroma subsampling : 4:2:0
Bit depth : 8 бит
Scan type : Прогрессивная
Bits/(Pixel*Frame) : 0.138
Stream size : 684 Мбайт (92%)
Writing library : x264 core 152 r2851 ba24899
Encoding settings : cabac=1 / ref=12 / deblock=1:-1:-1 / analyse=0x3:0x133 / me=umh / subme=11 / psy=1 / psy_rd=1.00:0.10 / mixed_ref=1 / me_range=32 / chroma_me=1 / trellis=2 / 8x8dct=1 / cqm=0 / deadzone=21,11 / fast_pskip=0 / chroma_qp_offset=-3 / threads=9 / lookahead_threads=2 / sliced_threads=0 / nr=0 / decimate=0 / interlaced=0 / bluray_compat=0 / constrained_intra=0 / bframes=14 / b_pyramid=2 / b_adapt=2 / b_bias=0 / direct=3 / weightb=1 / open_gop=0 / weightp=2 / keyint=240 / keyint_min=23 / scenecut=0 / intra_refresh=0 / rc_lookahead=60 / rc=2pass / mbtree=1 / bitrate=732 / ratetol=1.0 / qcomp=0.60 / qpmin=0 / qpmax=51 / qpstep=4 / cplxblur=15.0 / qblur=0.5 / vbv_maxrate=50000 / vbv_bufsize=62500 / nal_hrd=none / filler=0 / ip_ratio=1.40 / aq=1:1.00
Default : Да
Forced : Нет
Аудио
ID : 2
Format : AAC
Format/Info : Advanced Audio Codec
Format profile : LC
Codec ID : A_AAC
Duration : 2 ч. 10 м.
Bit rate : 64,0 Кбит/сек
Channel(s) : 2 канала
Channel positions : Front: L R
Sampling rate : 48,0 КГц
Frame rate : 46,875 кадров/сек (1024 spf)
Compression mode : С потерями
Stream size : 59,8 Мбайт (8%)
Title : DUB (Varus Video)
Language : Russian
Default : Да
Forced : Нет
Текст #1
ID : 3
Format : UTF-8
Codec ID : S_TEXT/UTF8
Codec ID/Info : UTF-8 Plain Text
Duration : 2 ч. 10 м.
Bit rate : 67 бит/сек
Count of elements : 1363
Stream size : 64,1 Кбайт (0%)
Title : Russian
Language : Russian
Default : Нет
Forced : Нет
Текст #2
ID : 4
Format : UTF-8
Codec ID : S_TEXT/UTF8
Codec ID/Info : UTF-8 Plain Text
Duration : 2 ч. 9 м.
Bit rate : 47 бит/сек
Count of elements : 1424
Stream size : 45,3 Кбайт (0%)
Title : English
Language : English
Default : Нет
Forced : Нет
Меню
00:00:00.000 : en:00:00:00.000
00:01:11.905 : en:00:01:11.905
00:03:54.234 : en:00:03:54.234
00:07:01.046 : en:00:07:01.046
00:08:17.539 : en:00:08:17.539
00:14:10.600 : en:00:14:10.600
00:16:54.680 : en:00:16:54.680
00:24:18.499 : en:00:24:18.499
00:28:52.397 : en:00:28:52.397
00:31:42.025 : en:00:31:42.025
00:34:34.698 : en:00:34:34.698
00:38:53.957 : en:00:38:53.957
00:46:24.532 : en:00:46:24.532
00:53:43.971 : en:00:53:43.971
00:58:05.023 : en:00:58:05.023
01:00:24.704 : en:01:00:24.704
01:06:48.755 : en:01:06:48.755
01:09:36.089 : en:01:09:36.089
01:13:48.674 : en:01:13:48.674
01:20:59.605 : en:01:20:59.605
01:24:46.623 : en:01:24:46.623
01:29:38.665 : en:01:29:38.665
01:34:27.078 : en:01:34:27.078
01:36:10.723 : en:01:36:10.723
01:41:10.898 : en:01:41:10.898
01:43:13.687 : en:01:43:13.687
01:45:50.219 : en:01:45:50.219
01:49:19.094 : en:01:49:19.094
01:53:14.329 : en:01:53:14.329
01:54:34.076 : en:01:54:34.076
01:58:21.344 : en:01:58:21.344
02:02:12.659 : en:02:02:12.659
02:04:32.048 : en:02:04:32.048

Скриншоты

Релиз:
[Профиль] [ЛС]
Показать сообщения:    

Текущее время: Сегодня 19:02

Часовой пояс: GMT



Вы не можете начинать темы
Вы не можете отвечать на сообщения
Вы не можете редактировать свои сообщения
Вы не можете удалять свои сообщения
Вы не можете голосовать в опросах
Вы не можете прикреплять файлы к сообщениям
Вы не можете скачивать файлы