Неправильные копы / Wrong cops (2013) BDRip 1080p | P

 
Автор Сообщение

sergej644 ®

Пол:

Стаж: 4 года 11 месяцев

Сообщений: 6041

Откуда: Soviet Union



Награды: Нет

Торрент-статистика

Создавать темы 16-Фев-2015 19:11

[Цитировать]

Информация о фильме
Название: Неправильные копы
Оригинальное название: Wrong cops
Год выхода: 2013
Жанр: комедия
Режиссер: Квентин Дюпьё / Quentin Dupieux
В ролях: Марк Бёрнэм, Эрик Жюдор, Стив Литтл, Мэрилин Мэнсон, Грейс Забриски, Арден Майрин, Эрик Верхейм, Изабелла Пальмиери, Дэниэл Куинн, Хиллари Так
О фильме:
Дюк — продажный коп-меломан, в общем-то, фиговый полицейский. Торгует легкими наркотиками и пугает жителей Лос-Анджелеса. Среди его коллег в участке — сексуально озабоченный офицер, блондинка-шантажистка, семьянин с сомнительным прошлым и одноглазый маргинал, мечтающий о карьере техно-музыканта. Налаженная коррупционная система дает сбой, когда случайная жертва Дюка, подстреленный и запихнутый в багажник сосед, вдруг приходит в себя…
Страна: Франция, Россия
Студия: CTB Film Company, Orange Sky
Продолжительность: 01:22:11
Перевод: Профессиональный (многоголосый закадровый)
Файл
Кодек: x264
Качество: BDRip 1080p
Видео: MPEG-4 AVC, 12.3 Mбит/с, 1920x856, 23,976 fps
Звук:
Аудио: Rus, AC3, 384 kb/s (2 ch), 48 kHz
Аудио 2: Eng, DTS, 768 kb/s (6 ch), 48 kHz
Субтитры: английские

MediaInfo

x264 [info]: frame I:978 Avg QP:17.35 size:170706
x264 [info]: frame P:22418 Avg QP:18.13 size: 90004
x264 [info]: frame B:94774 Avg QP:20.27 size: 58760
Format : Matroska
Format version : Version 4 / Version 2
File size : 7.88 GiB
Duration : 1h 22mn
Overall bit rate : 13.7 Mbps
Movie name : Tonik
Encoded date : UTC 2015-02-09 03:26:13
Writing application : mkvmerge v7.1.0 ('Good Love') 64bit built on Jul 27 2014 13:06:55
Writing library : libebml v1.3.0 + libmatroska v1.4.1
_STATISTICS_WRITING_APP : mkvmerge v7.1.0 ('Good Love') 64bit built on Jul 27 2014 13:06:55
_STATISTICS_WRITING_DATE_UTC : 2015-02-09 03:26:13
_STATISTICS_TAGS : BPS DURATION NUMBER_OF_FRAMES NUMBER_OF_BYTES
DURATION : 01:17:43.216000000
NUMBER_OF_FRAMES : 1575
NUMBER_OF_BYTES : 38387
Video
ID : 1
Format : AVC
Format/Info : Advanced Video Codec
Format profile : High@L4.1
Format settings, CABAC : Yes
Format settings, ReFrames : 5 frames
Codec ID : V_MPEG4/ISO/AVC
Duration : 1h 22mn
Bit rate : 12.3 Mbps
Width : 1 920 pixels
Height : 856 pixels
Display aspect ratio : 2.25:1
Frame rate mode : Constant
Frame rate : 23.976 fps
Color space : YUV
Chroma subsampling : 4:2:0
Bit depth : 8 bits
Scan type : Progressive
Bits/(Pixel*Frame) : 0.313
Stream size : 7.07 GiB (90%)
Title : Tonik
Writing library : x264 core 144 r2525 40bb568
Encoding settings : cabac=1 / ref=5 / deblock=1:-3:-3 / analyse=0x3:0x133 / me=umh / subme=11 / psy=1 / psy_rd=1.00:0.00 / mixed_ref=1 / me_range=48 / chroma_me=1 / trellis=2 / 8x8dct=1 / cqm=0 / deadzone=21,11 / fast_pskip=0 / chroma_qp_offset=-2 / threads=12 / lookahead_threads=2 / sliced_threads=0 / nr=0 / decimate=1 / interlaced=0 / bluray_compat=0 / constrained_intra=0 / bframes=9 / b_pyramid=2 / b_adapt=2 / b_bias=0 / direct=1 / weightb=1 / open_gop=0 / weightp=2 / keyint=250 / keyint_min=23 / scenecut=40 / intra_refresh=0 / rc=crf / mbtree=0 / crf=18.0 / qcomp=0.60 / qpmin=0 / qpmax=69 / qpstep=4 / ip_ratio=1.40 / pb_ratio=1.30 / aq=1:1.00
Language : English
Default : Yes
Forced : No
DURATION : 01:22:08.679000000
NUMBER_OF_FRAMES : 118170
NUMBER_OF_BYTES : 7753557351
_STATISTICS_WRITING_APP : mkvmerge v7.1.0 ('Good Love') 64bit built on Jul 27 2014 13:06:55
_STATISTICS_WRITING_DATE_UTC : 2015-02-09 03:26:13
_STATISTICS_TAGS : BPS DURATION NUMBER_OF_FRAMES NUMBER_OF_BYTES
Audio #1
ID : 2
Format : AC-3
Format/Info : Audio Coding 3
Mode extension : CM (complete main)
Format settings, Endianness : Big
Codec ID : A_AC3
Duration : 1h 22mn
Bit rate mode : Constant
Bit rate : 384 Kbps
Channel(s) : 2 channels
Channel positions : Front: L R
Sampling rate : 48.0 KHz
Bit depth : 16 bits
Compression mode : Lossy
Stream size : 226 MiB (3%)
Language : Russian
Default : Yes
Forced : No
Audio #2
ID : 3
Format : DTS
Format/Info : Digital Theater Systems
Mode : 16
Format settings, Endianness : Big
Codec ID : A_DTS
Duration : 1h 22mn
Bit rate mode : Constant
Bit rate : 768 Kbps
Channel(s) : 6 channels
Channel positions : Front: L C R, Side: L R, LFE
Sampling rate : 48.0 KHz
Bit depth : 16 bits
Compression mode : Lossy
Stream size : 451 MiB (6%)
Language : English
Default : No
Forced : No
Text
ID : 4
Format : UTF-8
Codec ID : S_TEXT/UTF8
Codec ID/Info : UTF-8 Plain Text
Language : English
Default : No
Forced : No

Скриншоты

[Профиль] [ЛС]
Кто просматривает тему:

Показать сообщения:    

Текущее время: Сегодня 06:06

Часовой пояс: GMT



Вы не можете начинать темы
Вы не можете отвечать на сообщения
Вы не можете редактировать свои сообщения
Вы не можете удалять свои сообщения
Вы не можете голосовать в опросах
Вы не можете прикреплять файлы к сообщениям
Вы не можете скачивать файлы