Неповиновение / Disobedience (2017) BDRip 720p | Sub

 
Автор Сообщение

BOSS ®

Пол:

Стаж: 3 года 9 месяцев

Сообщений: 11123

Откуда: ODESSA



Награды: 22 (Подробнее)

Top Releaser 5 (Количество: 1) Top Keeper 2 (Количество: 1) Mega Seeder 3 (Количество: 1)
Торрент-статистика

Создавать темы 11-Июл-2018 16:19

[Цитировать]

Информация о фильме
Название: Неповиновение
Оригинальное название: Disobedience
Год выхода: 2017
Жанр: Драма, мелодрама
Режиссер: Себастьян Лелио
В ролях: Рэйчел Вайс, Рэйчел МакАдамс, Алессандро Нивола, Энтон Лессер, Аллан Кордунер, Николас Вудесон, Дэвид Флишман, Стив Ферст, Тревор Аллан Дейвис, Софиа Браун
О фильме: Женщина возвращается в свой ортодоксальный еврейский дом после смерти раввина, своего отца. Общественное возмущение вызывает интерес, возникший у нее к подруге детства.-
Страна: Великобритания, Ирландия, США
Студия: Braven Films, Element Pictures, Film 4, Stage 6 Films
Продолжительность: 01:54:39
Перевод: Русские субтитры | Focs
Файл
Кодек: MPEG-4 AVC
Качество: BDRip 720p
Видео: 1280x536, 5313kb/s, 23.976fps
Звук: 1509kb/s, 6ch, 48000kHz, DTS [ENG] | Английский язык
Субтитры: Русские [Focs], английские

MI

Формат : Matroska
Версия формата : Version 4 / Version 2
Размер файла : 5,47 Гбайт
Продолжительность : 1 ч. 54 м.
Общий поток : 6827 Кбит/сек
Дата кодирования : UTC 2018-07-11 13:23:52
Программа кодирования : mkvmerge v8.3.0 ('Over the Horizon') 64bit
Библиотека кодирования : libebml v1.3.1 + libmatroska v1.4.2
Видео
Идентификатор : 1
Формат : AVC
Формат/Информация : Advanced Video Codec
Профиль формата : High@L4.1
Настройки формата : CABAC / 5 Ref Frames
Параметр CABAC формата : Да
Параметр RefFrames формата : 5 кадров
Идентификатор кодека : V_MPEG4/ISO/AVC
Продолжительность : 1 ч. 54 м.
Битрейт : 5313 Кбит/сек
Ширина : 1280 пикселей
Высота : 536 пикселей
Соотношение сторон : 2,40:1
Режим частоты кадров : Постоянный
Частота кадров : 23,976 кадра/сек
Цветовое пространство : YUV
Субдискретизация насыщенности : 4:2:0
Битовая глубина : 8 бит
Тип развёртки : Прогрессивная
Бит/(Пиксели*Кадры) : 0.323
Размер потока : 4,25 Гбайт (78%)
Библиотека кодирования : x264 core 155 r2901 7d0ff22
Настройки программы : cabac=1 / ref=5 / deblock=1:0:0 / analyse=0x3:0x133 / me=umh / subme=7 / psy=1 / psy_rd=1.00:0.00 / mixed_ref=1 / me_range=16 / chroma_me=1 / trellis=1 / 8x8dct=1 / cqm=0 / deadzone=21,11 / fast_pskip=0 / chroma_qp_offset=-2 / threads=17 / lookahead_threads=2 / sliced_threads=0 / nr=0 / decimate=1 / interlaced=0 / bluray_compat=0 / constrained_intra=0 / bframes=3 / b_pyramid=2 / b_adapt=1 / b_bias=0 / direct=1 / weightb=1 / open_gop=0 / weightp=2 / keyint=250 / keyint_min=23 / scenecut=40 / intra_refresh=0 / rc_lookahead=40 / rc=2pass / mbtree=1 / bitrate=5313 / ratetol=1.0 / qcomp=0.60 / qpmin=0 / qpmax=69 / qpstep=4 / cplxblur=20.0 / qblur=0.5 / ip_ratio=1.40 / aq=1:1.00
Язык : English
Default : Да
Forced : Нет
Аудио
Идентификатор : 2
Формат : DTS
Формат/Информация : Digital Theater Systems
Идентификатор кодека : A_DTS
Продолжительность : 1 ч. 54 м.
Вид битрейта : Постоянный
Битрейт : 1509 Кбит/сек
Каналы : 6 каналов
Расположение каналов : Front: L C R, Side: L R, LFE
Частота : 48,0 КГц
Частота кадров : 93,750 кадра/сек (512 SPF)
Битовая глубина : 24 бит
Метод сжатия : С потерями
Размер потока : 1,21 Гбайт (22%)
Язык : English
Default : Да
Forced : Нет
Текст #1
Идентификатор : 3
Формат : UTF-8
Идентификатор кодека : S_TEXT/UTF8
Идентификатор кодека/Информация : UTF-8 Plain Text
Продолжительность : 1 ч. 48 м.
Битрейт : 48 бит/сек
ElementCount : 869
Размер потока : 38,6 Кбайт (0%)
Заголовок : RUS SUB
Язык : Russian
Default : Да
Forced : Да
Текст #2
Идентификатор : 4
Формат : VobSub
Режим смешивания : zlib
Идентификатор кодека : S_VOBSUB
Идентификатор кодека/Информация : Picture based subtitle format used on DVDs
Продолжительность : 1 ч. 51 м.
Битрейт : 3354 бит/сек
ElementCount : 1053
Размер потока : 2,68 Мбайт (0%)
Заголовок : ENG SUB
Язык : English
Default : Нет
Forced : Нет
Меню
00:00:00.000 : en:00:00:00.000
00:03:43.014 : en:00:03:43.014
00:09:09.591 : en:00:09:09.591
00:16:38.998 : en:00:16:38.998
00:21:25.618 : en:00:21:25.618
00:25:31.655 : en:00:25:31.655
00:28:41.303 : en:00:28:41.303
00:36:43.785 : en:00:36:43.785
00:41:19.894 : en:00:41:19.894
00:50:03.375 : en:00:50:03.375
00:57:51.093 : en:00:57:51.093
01:02:46.179 : en:01:02:46.179
01:10:34.230 : en:01:10:34.230
01:17:28.727 : en:01:17:28.727
01:20:28.949 : en:01:20:28.949
01:25:35.339 : en:01:25:35.339
01:31:59.472 : en:01:31:59.472
01:37:21.711 : en:01:37:21.711
01:44:02.820 : en:01:44:02.820
01:49:47.247 : en:01:49:47.247
[Профиль] [ЛС]
Кто просматривает тему:

Форум Тема Автор Размер
Фильмы (HD DVD, Blu-ray и BDRemux) Неповиновение / Disobedience (2017) BDRemux 1080p | Sub BOSS 27.61 GB
Показать сообщения:    

Текущее время: Сегодня 20:17

Часовой пояс: GMT



Вы не можете начинать темы
Вы не можете отвечать на сообщения
Вы не можете редактировать свои сообщения
Вы не можете удалять свои сообщения
Вы не можете голосовать в опросах
Вы не можете прикреплять файлы к сообщениям
Вы не можете скачивать файлы