Непобедимый дикарь / The Air Up There (1994) WEBRip 1080p | P2

 
Автор Сообщение

BOSS ®

Пол:

Стаж: 3 года 11 месяцев

Сообщений: 11883

Откуда: ODESSA



Награды: 22 (Подробнее)

Mega Seeder 4 (Количество: 1) Top Releaser 3 (Количество: 1) Top Seeder 5 (Количество: 1)
Торрент-статистика

Создавать темы 09-Июн-2018 10:05

[Цитировать]

Информация о фильме
Название: Непобедимый дикарь
Оригинальное название: The Air Up There
Год выхода: 1994
Жанр: Kомедия, семейный, спорт
Режиссер: Пол Майкл Глейзер
В ролях: Кевин Бэйкон, Чарльз Гитонга Майна, Иоланда Васкес, Уинстон Нтшона, Мабуто 'Кид' Ситхоул, Шон МакКэнн, Деннис Патрик, Ило Мутомбо, Найджел Мигель, Эрик Менюк, Кейт Гиббс, Мириам Овити, Фрэнсис Мутеи, Гибсон Гату Мбугуа, Вуси Кунене, Конни Чиуме, Джон Матшикиза, Кен Гампу, Джомо Леварани, Джон Лесли, Фалконер Абрахам, Дэннис Орина, Питер Кигади, Бенсон Ратенг
О фильме :
Чтобы спасти свое пошатнувшееся положение, тренер баскетбольной команды, Джимми Долан, должен принимать отчаянные меры. И в то время, как другие наставники ищут новых игроков в Америке, он отправляется в самое сердце Африки, в настоящее дикое племя. Там живет Салех, который проявляет феноменальные способности к баскетболу. Но он оказывается сыном несговорчивого вождя. Тогда Джимми задумывает хитроумный план, чтобы привезти современного Тарзана в Америку...

Страна: США
Студия: Hollywood Pictures, Interscope Communications, Longview Entertainment
Продолжительность: 01:47:27
Перевод: Профессиональный (двухголосый закадровый)
Файл
Формат: MKV
Качество: WEBRip 1080p
Видео: MPEG-4 AVC, 1920x1040, ~ 13,2 Мбит/сек
Аудио #1: Русский, AC-3, 2 ch, ~ 192 Кбит/с | Профессиональный двухголосый
Аудио #2: Английский, AAC-LC, 2 ch, ~ 125 Кбит/с | Оригинал
Субтитры: Английские

MI

Общее
Уникальный идентификатор : 197451885274710617577603173956830330633 (0x948BD98F49554616A7B3655088A77F09)
Полное имя : D:разноеThe.Air.Up.There.1994.1080p.WEBRip.mkv
Формат : Matroska
Версия формата : Version 4 / Version 2
Размер файла : 10,2 Гбайт
Продолжительность : 1 ч. 47 м.
Режим общего битрейта : Переменный
Общий поток : 13,6 Мбит/сек
Дата кодирования : UTC 2018-06-08 10:10:39
Программа кодирования : mkvmerge v15.0.0 ('Duel with the Devil') 64-bit
Библиотека кодирования : libebml v1.3.5 + libmatroska v1.4.5
Видео
Идентификатор : 1
Формат : AVC
Формат/Информация : Advanced Video Codec
Профиль формата : High@L4
Параметр CABAC формата : Да
Параметр RefFrames формата : 4 кадра
Идентификатор кодека : V_MPEG4/ISO/AVC
Продолжительность : 1 ч. 47 м.
Вид битрейта : Переменный
Битрейт : 13,2 Мбит/сек
Максимальный битрейт : 15,0 Мбит/сек
Ширина : 1920 пикселей
Высота : 1040 пикселей
Соотношение сторон : 1,85:1
Режим частоты кадров : Постоянный
Частота кадров : 23,976 (24000/1001) кадра/сек
Цветовое пространство : YUV
Субдискретизация насыщенности : 4:2:0
Битовая глубина : 8 бит
Тип развёртки : Прогрессивная
Бит/(Пиксели*Кадры) : 0.277
Размер потока : 9,94 Гбайт (98%)
Библиотека кодирования : x264 core 148 r2623 d5b2374
Настройки программы : cabac=1 / ref=4 / deblock=1:-1:-1 / analyse=0x3:0x133 / me=umh / subme=9 / psy=1 / psy_rd=1.00:0.15 / mixed_ref=1 / me_range=24 / chroma_me=1 / trellis=2 / 8x8dct=1 / cqm=0 / deadzone=21,11 / fast_pskip=1 / chroma_qp_offset=-3 / threads=32 / lookahead_threads=5 / sliced_threads=0 / nr=150 / decimate=1 / interlaced=0 / bluray_compat=0 / constrained_intra=0 / bframes=8 / b_pyramid=2 / b_adapt=2 / b_bias=0 / direct=3 / weightb=1 / open_gop=0 / weightp=2 / keyint=120 / keyint_min=61 / scenecut=0 / intra_refresh=0 / rc_lookahead=120 / rc=crf / mbtree=1 / crf=18.0 / qcomp=0.60 / qpmin=0 / qpmax=69 / qpstep=4 / vbv_maxrate=15000 / vbv_bufsize=31250 / crf_max=0.0 / nal_hrd=vbr / filler=0 / ip_ratio=1.40 / aq=3:1.00
Язык : English
Default : Да
Forced : Нет
Цветовой диапазон : Limited
Основные цвета : BT.709
Характеристики трансфера : BT.709
Коэффициенты матрицы : BT.709
Аудио #1
Идентификатор : 2
Формат : AC-3
Формат/Информация : Audio Coding 3
Параметр Endianness формата : Big
Идентификатор кодека : A_AC3
Продолжительность : 1 ч. 47 м.
Вид битрейта : Постоянный
Битрейт : 192 Кбит/сек
Каналы : 2 канала
Расположение каналов : Front: L R
Частота : 48,0 КГц
Частота кадров : 31,250 кадров/сек (1536 SPF)
Битовая глубина : 16 бит
Метод сжатия : С потерями
Задержка видео : 1 с. 300 мс.
Размер потока : 148 Мбайт (1%)
Язык : Russian
Default : Да
Forced : Нет
Аудио #2
Идентификатор : 3
Формат : AAC
Формат/Информация : Advanced Audio Codec
Профиль формата : LC
Идентификатор кодека : A_AAC
Продолжительность : 1 ч. 47 м.
Битрейт : 125 Кбит/сек
Каналы : 2 канала
Расположение каналов : Front: L R
Частота : 48,0 КГц
Частота кадров : 46,875 кадров/сек (1024 SPF)
Метод сжатия : С потерями
Размер потока : 96,4 Мбайт (1%)
Язык : English
Default : Нет
Forced : Нет
Текст
Идентификатор : 4
Формат : UTF-8
Идентификатор кодека : S_TEXT/UTF8
Идентификатор кодека/Информация : UTF-8 Plain Text
Продолжительность : 1 ч. 46 м.
Битрейт : 56 бит/сек
ElementCount : 1216
Размер потока : 44,1 Кбайт (0%)
Язык : English
Default : Нет
Forced : Нет

Скриншоты


[Профиль] [ЛС]
Показать сообщения:    

Текущее время: Сегодня 14:23

Часовой пояс: GMT



Вы не можете начинать темы
Вы не можете отвечать на сообщения
Вы не можете редактировать свои сообщения
Вы не можете удалять свои сообщения
Вы не можете голосовать в опросах
Вы не можете прикреплять файлы к сообщениям
Вы не можете скачивать файлы