Неотправленное письмо (Михаил Калатозов) [1959, СССР, драма, BDRip 1080p]

 
Автор Сообщение

TorrentFilm ®

Пол:

Стаж: 2 года

Сообщений: 7741



Награды: Нет

Торрент-статистика

Создавать темы 01-Янв-2016 00:05

[Цитировать]

-Неотправленное письмо-Страна: СССР
Студия: Мосфильм
Жанр: драма
Год выпуска: 1959
Продолжительность: 01:36:18-Cубтитры: нет
Оригинальная аудиодорожка: русский-Режиссер: Михаил Калатозов
В ролях: Василий Ливанов, Татьяна Самойлова, Евгений Урбанский, Иннокентий Смоктуновский, Галина Кожакина-Описание: После долгой, напряженной работы, когда все запасы продовольствия были уже на исходе, наступали первые осенние холода и не оставалось никаких надежд, были найдены, наконец, алмазы. Но утром разметался по тайге пожар и отрезал геологам путь к лодкам с продовольствием и снаряжением. Их было четверо в пылающей тайге. И геологам надо было не только спасти друг друга, но и передать знания о найденных алмазах на Большую Землю...-Доп. информация: Первая роль Василия Ливанова в кино. Во время съёмок именно этого фильма актер сорвал голос и простудил горло (по решению Калатозова он озвучивал роль на улице на сильном ветре и морозе в 40 градусов), вследствие чего его голос навсегда приобрел знаменитый хрипловатый тембр.-Тип релиза: BDrip 1080p - сэмпл
Контейнер: MKV
Видео: MPEG-4 AVC Video 17384 Kbps 1440 X 1080 p / 23,976 fps / 4:3 / High Profile 4.1
Аудио: Dolby Digital Audio Russian 448 kbps 1.0 / 48 kHz

MI

General
Complete name                    : Z:\Temp\Letter.Never.Sent.1960.BluRay.Criterion.Collection.1080p.AC3.x264-CHD\Letter.Never.Sent.1960.BluRay.Criterion.Collection.1080p.AC3.x264-CHD.mkv
Format                           : Matroska
File size                        : 12.0 GiB
Duration                         : 1h 36mn
Overall bit rate                 : 17.8 Mbps
Encoded date                     : UTC 2012-03-23 02:00:46
Writing application              : mkvmerge v3.2.0 ('Beginnings') built on Feb 12 2010 16:46:17
Writing library                  : libebml v0.7.9 + libmatroska v0.8.1
Video
ID                               : 1
Format                           : AVC
Format/Info                      : Advanced Video Codec
Format profile                   : High@L4.1
Format settings, CABAC           : Yes
Format settings, ReFrames        : 5 frames
Muxing mode                      : Container profile=Unknown@4.1
Codec ID                         : V_MPEG4/ISO/AVC
Duration                         : 1h 36mn
Bit rate                         : 17.4 Mbps
Width                            : 1 440 pixels
Height                           : 1 080 pixels
Display aspect ratio             : 4:3
Frame rate                       : 23.976 fps
Color space                      : YUV
Chroma subsampling               : 4:2:0
Bit depth                        : 8 bits
Scan type                        : Progressive
Bits/(Pixel*Frame)               : 0.466
Stream size                      : 11.5 GiB (95%)
Writing library                  : x264 core 120 r2164 da19765
Encoding settings                : cabac=1 / ref=5 / deblock=1:-3:-3 / analyse=0x3:0x113 / me=umh / subme=11 / psy=1 / psy_rd=1.05:0.10 / mixed_ref=1 / me_range=48 / chroma_me=1 / trellis=2 / 8x8dct=1 / cqm=0 / deadzone=21,11 / fast_pskip=0 / chroma_qp_offset=-2 / threads=12 / sliced_threads=0 / nr=0 / decimate=1 / interlaced=0 / bluray_compat=0 / constrained_intra=0 / bframes=6 / b_pyramid=2 / b_adapt=2 / b_bias=0 / direct=3 / weightb=1 / open_gop=0 / weightp=2 / keyint=250 / keyint_min=23 / scenecut=40 / intra_refresh=0 / rc_lookahead=60 / rc=2pass / mbtree=1 / bitrate=17384 / ratetol=1.0 / qcomp=0.70 / qpmin=0 / qpmax=69 / qpstep=4 / cplxblur=20.0 / qblur=0.5 / vbv_maxrate=45000 / vbv_bufsize=40000 / nal_hrd=none / ip_ratio=1.40 / aq=2:0.90
Language                         : English
Audio
ID                               : 2
Format                           : AC-3
Format/Info                      : Audio Coding 3
Mode extension                   : CM (complete main)
Codec ID                         : A_AC3
Duration                         : 1h 36mn
Bit rate mode                    : Constant
Bit rate                         : 448 Kbps
Channel(s)                       : 1 channel
Channel positions                : Front: C
Sampling rate                    : 48.0 KHz
Bit depth                        : 16 bits
Stream size                      : 309 MiB (3%)
Language                         : Russian

Видеоряд от CHD

Letter.Never.Sent.1960.BluRay.Criterion.Collection.1080p.AC3.x264-CHD
RELEASE DATE....: 3/20/2012 THEATRE DATE....: 1960 iMDB URL........: http://www.imdb.com/title/tt0053106/ iMDB RATiNG.....: 7.7/10 (303 votes) GENRE...........: Drama | Romance SOURCE .........: Letter Never Sent 1960 BluRay Criterion Collection 1080p AVC LPCM 1.0-CHDBits ViDEO BiTRATE...: x264 @ 17384 Kbps FRAME RATE......: 23.976 fps AUDiO1 .........: Russian AC3 1.0 @ 448 kbps RUNTiME.........: 1:36:19 (h:m:s) ASPECT RATiO....: 1.333 : 1 RESOLUTiON......: 1440 X 1080 SUBTiTLES.......: N/A FilE SiZE.......: 12G ENCODER.........: dingxwsimon@CHD
x264 [info]: frame I:601 Avg QP:17.95 size:145131x264 [info]: frame P:30010 Avg QP:19.02 size:113450x264 [info]: frame B:107945 Avg QP:21.32 size: 84014

Скриншоты


[Профиль] [ЛС]
Показать сообщения:    

Текущее время: Сегодня 12:10

Часовой пояс: GMT



Вы не можете начинать темы
Вы не можете отвечать на сообщения
Вы не можете редактировать свои сообщения
Вы не можете удалять свои сообщения
Вы не можете голосовать в опросах
Вы не можете прикреплять файлы к сообщениям
Вы не можете скачивать файлы