Неоспоримый 2 / Обсуждению не подлежит 2 / Undisputed II: Last Man Standing (Айзек Флорентайн / Isaac Florentine) [2006, США, боевик, драма, криминал, спорт, BDRip-AVC] MVO (R5) + DVO + Original (Eng) + Subs (Rus, Eng)

 
Автор Сообщение

reversefile ®

Пол:

Стаж: 4 года 5 месяцев

Сообщений: 842

Откуда: ReverseFile.org



Награды: Нет

Торрент-статистика

Создавать темы 13-Авг-2014 10:06

[Цитировать]

Неоспоримый 2 / Обсуждению не подлежит 2 / Undisputed II: Last Man Standing«He's not fighting for a title... He's fighting for his life»- Страна: США
Жанр: боевик, драма, криминал, спорт
Год выпуска: 2006
Продолжительность: 01:37:36-Перевод №1: Профессиональный (многоголосый закадровый) - R5
Перевод №2: Профессиональный (двухголосый закадровый)
Оригинальная аудиодорога: English
Cубтитры: Russian (full), English (full) - (*.srt)
Навигация по главам: Присутствует - (16 глав)-Режиссер: Айзек Флорентайн / Isaac Florentine
В ролях: Майкл Джей Уайт, Скотт Эдкинс, Бен Кросс, Эли Данкер, Марк Иванир, Кен Лернер, Дэйзи Лэнг, Сильвио Шимач, Ивайло Герасков, Валентин Ганев-Описание
Бывший чемпион мира по боксу во время визита в Россию случайно попадает в криминальную разборку, связанную с высшими правительственными чинами и против него фабрикуется ложное дело. Дорога домой будет долгой и трудной, проходящей через суровую российскую тюрьму…
-
Download sample-Качество видео: BDRip-AVC | исх. BDRemux 1080p
Формат видео: MKV-Видео: 1 094x592 (1.85:1), 23.976 fps, x264 ~4470 kbps avg, 0.280 bit/pixel
Аудио №1: 48 kHz, AC3 Dolby Digital, 3/2 (L,C,R,l,r) + LFE ch, ~448 kbps | Профессиональный (многоголосый закадровый) - R5
Аудио №2: 48 kHz, AC3 Dolby Digital, 2/0 (L,R) ch, ~192 kbps | Профессиональный (двухголосый закадровый)
Аудио №3: 48 kHz, AC3 Dolby Digital, 3/2 (L,C,R,l,r) + LFE ch, ~448 kbps | English-

MediaInfo

General
Unique ID : 223408238465731500841591767175715797425 (0xA812DC93ADB4A99D824FEB97C54AB9B1)
Complete name : D:\Фильмы\Рипы\Undisputed II Last Man Standing 2006.BDRip-AVC.Fredd Kruger.mkv
Format : Matroska
Format version : Version 4 / Version 2
File size : 3.79 GiB
Duration : 1h 37mn
Overall bit rate : 5 538 Kbps
Movie name : Undisputed 2 (2006) - Release for rutracker
Encoded date : UTC 2014-05-06 10:58:55
Writing application : mkvmerge v6.1.0 ('Old Devil') built on Mar 4 2013 09:10:42
Writing library : libebml v1.3.0 + libmatroska v1.4.0
Attachment : Yes
Video
ID : 1
Format : AVC
Format/Info : Advanced Video Codec
Format profile : High@L4.1
Format settings, CABAC : Yes
Format settings, ReFrames : 15 frames
Codec ID : V_MPEG4/ISO/AVC
Duration : 1h 37mn
Bit rate : 4 340 Kbps
Width : 1 094 pixels
Height : 592 pixels
Display aspect ratio : 1.85:1
Frame rate mode : Constant
Frame rate : 23.976 fps
Color space : YUV
Chroma subsampling : 4:2:0
Bit depth : 8 bits
Scan type : Progressive
Bits/(Pixel*Frame) : 0.280
Stream size : 2.97 GiB (78%)
Title : Encode Fredd Kruger
Writing library : x264 core 142 r2431kMod ac76440
Encoding settings : cabac=1 / ref=15 / deblock=1:-3:-3 / analyse=0x3:0x133 / me=umh / subme=11 / psy=1 / fade_compensate=0.00 / psy_rd=1.05:0.05 / mixed_ref=1 / me_range=32 / chroma_me=1 / trellis=2 / 8x8dct=1 / cqm=0 / deadzone=21,11 / fast_pskip=1 / chroma_qp_offset=-3 / threads=8 / lookahead_threads=2 / sliced_threads=0 / nr=0 / decimate=1 / interlaced=0 / bluray_compat=0 / constrained_intra=0 / fgo=0 / bframes=16 / b_pyramid=2 / b_adapt=2 / b_bias=0 / direct=3 / weightb=1 / open_gop=0 / weightp=2 / keyint=250 / keyint_min=23 / scenecut=40 / intra_refresh=0 / rc_lookahead=60 / rc=crf / mbtree=0 / crf=19.5625 / qcomp=0.60 / qpmin=0 / qpmax=69 / qpstep=4 / vbv_maxrate=50000 / vbv_bufsize=62500 / crf_max=0.0 / nal_hrd=none / filler=0 / ip_ratio=1.40 / pb_ratio=1.30 / aq=1:0.70 / zones=135216,140398,q=30
Default : Yes
Forced : No
Audio #1
ID : 2
Format : AC-3
Format/Info : Audio Coding 3
Mode extension : CM (complete main)
Format settings, Endianness : Big
Codec ID : A_AC3
Duration : 1h 37mn
Bit rate mode : Constant
Bit rate : 448 Kbps
Channel count : 6 channels
Channel positions : Front: L C R, Side: L R, LFE
Sampling rate : 48.0 KHz
Bit depth : 16 bits
Compression mode : Lossy
Stream size : 314 MiB (8%)
Title : MVO (R5)
Language : Russian
Default : Yes
Forced : No
Audio #2
ID : 3
Format : AC-3
Format/Info : Audio Coding 3
Mode extension : CM (complete main)
Format settings, Endianness : Big
Codec ID : A_AC3
Duration : 1h 37mn
Bit rate mode : Constant
Bit rate : 192 Kbps
Channel count : 2 channels
Channel positions : Front: L R
Sampling rate : 48.0 KHz
Bit depth : 16 bits
Compression mode : Lossy
Delay relative to video : 1s 0ms
Stream size : 135 MiB (3%)
Title : DVO
Language : Russian
Default : No
Forced : No
Audio #3
ID : 4
Format : AC-3
Format/Info : Audio Coding 3
Mode extension : CM (complete main)
Format settings, Endianness : Big
Codec ID : A_AC3
Duration : 1h 37mn
Bit rate mode : Constant
Bit rate : 448 Kbps
Channel count : 6 channels
Channel positions : Front: L C R, Side: L R, LFE
Sampling rate : 48.0 KHz
Bit depth : 16 bits
Compression mode : Lossy
Stream size : 314 MiB (8%)
Language : English
Default : No
Forced : No
Text #1
ID : 5
Format : UTF-8
Codec ID : S_TEXT/UTF8
Codec ID/Info : UTF-8 Plain Text
Title : full
Language : Russian
Default : No
Forced : No
Text #2
ID : 6
Format : UTF-8
Codec ID : S_TEXT/UTF8
Codec ID/Info : UTF-8 Plain Text
Title : full
Language : English
Default : No
Forced : No
Menu
00:00:00.000 : en:00:00:00.000
00:12:48.893 : en:00:12:48.893
00:20:02.118 : en:00:20:02.118
00:26:09.067 : en:00:26:09.067
00:30:53.351 : en:00:30:53.351
00:39:56.936 : en:00:39:56.936
00:48:14.058 : en:00:48:14.058
00:52:31.648 : en:00:52:31.648
00:58:56.533 : en:00:58:56.533
01:03:05.907 : en:01:03:05.907
01:11:07.305 : en:01:11:07.305
01:15:51.464 : en:01:15:51.464
01:19:19.755 : en:01:19:19.755
01:21:45.567 : en:01:21:45.567
01:28:16.625 : en:01:28:16.625
01:34:01.219 : en:01:34:01.219

x264 log

x264 [info]: frame I:992 Avg QP:18.82 size: 76413 PSNR Mean Y:44.03 U:48.38 V:50.76 Avg:45.15 Global:44.69
x264 [info]: frame P:28329 Avg QP:20.63 size: 38733 PSNR Mean Y:42.35 U:47.67 V:50.41 Avg:43.54 Global:42.97
x264 [info]: frame B:111078 Avg QP:22.64 size: 18896 PSNR Mean Y:40.93 U:46.55 V:49.93 Avg:42.20 Global:41.71
x264 [info]: consecutive B-frames: 1.4% 1.8% 4.2% 26.9% 7.8% 43.0% 2.3% 6.0% 1.0% 2.5% 0.4% 1.9% 0.2% 0.3% 0.0% 0.2% 0.1%
x264 [info]: mb I I16..4: 2.8% 87.4% 9.9%
x264 [info]: mb P I16..4: 0.2% 14.3% 1.0% P16..4: 27.4% 37.6% 13.2% 1.1% 0.0% skip: 5.3%
x264 [info]: mb B I16..4: 0.0% 1.4% 0.1% B16..8: 43.8% 23.6% 4.6% direct: 8.1% skip:18.3% L0:45.8% L1:47.2% BI: 7.0%
x264 [info]: 8x8 transform intra:91.9% inter:61.3%
x264 [info]: direct mvs spatial:99.9% temporal:0.1%
x264 [info]: coded y,uvDC,uvAC intra: 96.3% 78.7% 60.2% inter: 46.6% 24.0% 5.3%
x264 [info]: i16 v,h,dc,p: 21% 25% 9% 45%
x264 [info]: i8 v,h,dc,ddl,ddr,vr,hd,vl,hu: 6% 8% 6% 11% 16% 14% 15% 11% 12%
x264 [info]: i4 v,h,dc,ddl,ddr,vr,hd,vl,hu: 8% 8% 3% 9% 16% 15% 16% 12% 13%
x264 [info]: i8c dc,h,v,p: 47% 21% 16% 17%
x264 [info]: Weighted P-Frames: Y:7.9% UV:4.8%
x264 [info]: ref P L0: 39.0% 9.0% 16.3% 8.0% 5.9% 4.8% 3.8% 2.4% 2.0% 1.8% 1.6% 1.5% 1.3% 1.3% 1.2% 0.1%
x264 [info]: ref B L0: 64.2% 12.6% 7.3% 3.8% 2.9% 2.3% 1.9% 1.1% 1.0% 0.8% 0.8% 0.7% 0.4% 0.2%
x264 [info]: ref B L1: 89.8% 10.2%
x264 [info]: SSIM Mean Y:0.9527914 (13.260db)
x264 [info]: PSNR Mean Y:41.238 U:46.787 V:50.033 Avg:42.489 Global:41.953 kb/s:4470.16
x264 [total]: encoded 140399 frames, 7.66 fps, 4470.16 kb/s

Comparison

Source

Encode
[Профиль] [ЛС]

Создавать темы 06-Авг-2015 23:18 (спустя 11 месяцев 24 дня)

Топик был перенесен из форума Фильмы до 2014 года в форум Фильмы до 2012 года
sergej644
 
Показать сообщения:    

Текущее время: Сегодня 12:31

Часовой пояс: GMT



Вы не можете начинать темы
Вы не можете отвечать на сообщения
Вы не можете редактировать свои сообщения
Вы не можете удалять свои сообщения
Вы не можете голосовать в опросах
Вы не можете прикреплять файлы к сообщениям
Вы не можете скачивать файлы