Неопалимый Феникс [01-04 из 04] (2018) WEB-DLRip

 
Author Message

BOSS ®

Gender:

Longevity: 4 years 6 months

Posts: 14056

Location: ODESSA



: 22 ()

За внесенный вклад в развитие сайта (1) Top Keeper 2 (1) Mega Seeder 2 (1)
Торрент-статистика

Post 10-Feb-2019 14:41

[Quote]

Информация о фильме
Оригинальное название: Неопалимый Феникс
Год выхода: 2018
Жанр: Мелодрама, детектив
Режиссер: Дмитрий Аверин
В ролях: Татьяна Колганова, Илья Носков, Валентина Панина, Екатерина Панасюк, Игорь Головин, Антон Сычёв, Денис Пьянов, Амин Хуратов, Виктория Плоп, Кирилл Балобан, Алексей Копылов, Никита Барсуков, Наталья Мызникова, Евгения Свиридова, Алёна Баркова
О фильме:
Кажется, у хозяйки популярного городского музыкального кафе Алёны Дубровицкой началась чёрная полоса – отношения с родными не ладятся, личная жизнь не складывается, а с членами её клуба одно за другим происходят страшные события, к тому же ей самой угрожает опасность... Как выбраться из череды неудач и спасти собственную жизнь?
Страна: Россия
Студия: Хитфильм Продакшн
Продолжительность: 4 x ~ 00:44:00
Перевод: Не требуется
Файл
Кодек: XviD
Качество: WEB-DLRip
Видео: XviD, ~ 1700 Кбит/с, 720x400, 25 кадр/с
Звук: AC3, 2 ch, 192 Кбит/с
Субтитры: Нет

Скриншоты


MediaInfo

General
Complete name : C:UsersuserDownloadsVideo1.Неопалимый Феникс.(2019).WEB-DLRip.Files-x..avi
Format : AVI
Format/Info : Audio Video Interleave
File size : 570 MiB
Duration : 44mn 12s
Overall bit rate : 1 802 Kbps
Writing application : VirtualDubMod 1.5.10.3 | www.virtualdub-fr.org || (build 2550/release)
Writing library : VirtualDubMod build 2550/release
Video
ID : 0
Format : MPEG-4 Visual
Format profile : Advanced Simple@L5
Format settings, BVOP : 1
Format settings, QPel : No
Format settings, GMC : No warppoints
Format settings, Matrix : Custom
Codec ID : XVID
Codec ID/Hint : XviD
Duration : 44mn 12s
Bit rate : 1 600 Kbps
Width : 720 pixels
Height : 400 pixels
Display aspect ratio : 16:9
Frame rate : 25.000 fps
Color space : YUV
Chroma subsampling : 4:2:0
Bit depth : 8 bits
Scan type : Progressive
Compression mode : Lossy
Bits/(Pixel*Frame) : 0.222
Stream size : 506 MiB (89%)
Writing library : XviD 73
Audio
ID : 1
Format : AC-3
Format/Info : Audio Coding 3
Mode extension : CM (complete main)
Codec ID : 2000
Duration : 44mn 12s
Bit rate mode : Constant
Bit rate : 192 Kbps
Channel(s) : 2 channels
Channel positions : Front: L R
Sampling rate : 48.0 KHz
Bit depth : 16 bits
Compression mode : Lossy
Stream size : 60.7 MiB (11%)
Alignment : Split accross interleaves
Interleave, duration : 40 ms (1.00 video frame)
Interleave, preload duration : 500 ms
[Profile] [PM]
Кто просматривает тему:

Display posts from previous:    

The time now is: Today 10:59

All times are GMT



You cannot post new topics in this forum
You cannot reply to topics in this forum
You cannot edit your posts in this forum
You cannot delete your posts in this forum
You cannot vote in polls in this forum
You cannot attach files in this forum
You cannot download files in this forum