Необыкновенные приключения Карика и Вали (Александр Люткевич) [2005, мультфильм, DVDRip-AVC]

 
Автор Сообщение

reversefile ®

Пол:

Стаж: 4 года 5 месяцев

Сообщений: 842

Откуда: ReverseFile.org



Награды: Нет

Торрент-статистика

Создавать темы 21-Июл-2014 18:12

[Цитировать]

Необыкновенные приключения Карика и Вали Год выпуска: 2005
Страна: Россия
Жанр: мультфильм, детский
Продолжительность: 00:56:33
Субтитры: нет
Оригинальная аудиодорожка: Русский
Режиссер: Александр Люткевич
Описание: Брат и сестра, Карик и Валя, случайно уменьшили себя до размеров насекомых, съев необычные пилюли, найденные ими в квартире их соседа, профессора Енотова. Верхом на стрекозе дети переносятся в удивительный мир растений и насекомых, живущий по своим законам, неведомым человеку.
Пока ребят ищут безутешные родители и милиция, профессор Енотов понимает, куда пропали дети. Выпив пилюли и уменьшившись, он спешит на помощь Карику и Вале. Героям предстоят невероятные приключения и потрясающие открытия в мире флоры и фауны на пути домой.....- -Исходник: DVD5 R5
Тип релиза: DVDRip-AVC
Контейнер: MKV
Видео: 720x576 -> 768х576 (4:3), 25 fps, H264 ~ 1710 kbps avg, 0.165 bit/pixel
Аудио: 48 kHz, AC3, 2 ch, 192.00 kbps, Русский

MediaInfo

Общее
Полное имя : Neobyknovennye.priklucheniya.Karika.i.Vali.2005\Neo.priklucheniya.Karika.i.Vali.2005.Rip-AVC.mkv
Формат : Matroska
Версия формата : Version 2
Размер файла : 770 Мбайт
Продолжительность : 56 м.
Общий поток : 1902 Кбит/сек
Название фильма : Neobyknovennye.priklucheniya.Karika.i.Vali.2005.Rip-AVC
Дата кодирования : UTC 2012-01-21 20:35:27
Программа кодирования : mkvmerge v5.2.0 ('I can't explain') built on Dec 18 2011 18:12:03
Библиотека кодирования : libebml v1.2.3 + libmatroska v1.3.0
Видео
Идентификатор : 1
Формат : AVC
Формат/Информация : Advanced Video Codec
Профиль формата : High@L4.1
Параметр CABAC формата : Да
Параметр ReFrames формата : 6 кадров
Идентификатор кодека : V_MPEG4/ISO/AVC
Продолжительность : 56 м.
Битрейт : 1710 Кбит/сек
Ширина : 720 пикселей
Высота : 576 пикселей
Соотношение сторон : 4:3
Частота кадров : 25,000 кадров/сек
Стандарт вещания : PAL
Цветовое пространство : YUV
Субдискретизация насыщенности : 4:2:0
Битовая глубина : 8 бит
Тип развёртки : Прогрессивная
Бит/(Пиксели*Кадры) : 0.165
Размер потока : 677 Мбайт (88%)
Заголовок : Источник DVD
Библиотека кодирования : x264 core 119 r2106 07efeb4
Настройки программы : cabac=1 / ref=6 / deblock=1:-2:-1 / analyse=0x3:0x113 / me=umh / subme=6 / psy=1 / psy_rd=1.00:0.10 / mixed_ref=1 / me_range=32 / chroma_me=1 / trellis=1 / 8x8dct=1 / cqm=0 / deadzone=21,11 / fast_pskip=1 / chroma_qp_offset=-3 / threads=3 / sliced_threads=0 / nr=0 / decimate=1 / interlaced=0 / bluray_compat=0 / constrained_intra=0 / bframes=6 / b_pyramid=2 / b_adapt=1 / b_bias=0 / direct=3 / weightb=1 / open_gop=0 / weightp=0 / keyint=250 / keyint_min=25 / scenecut=40 / intra_refresh=0 / rc_lookahead=60 / rc=2pass / mbtree=1 / bitrate=1710 / ratetol=1.0 / qcomp=0.60 / qpmin=0 / qpmax=69 / qpstep=4 / cplxblur=20.0 / qblur=0.5 / ip_ratio=1.40 / aq=1:1.00
Язык : Russian
Default : Да
Forced : Нет
Аудио
Идентификатор : 2
Формат : AC-3
Формат/Информация : Audio Coding 3
Расширение режима : CM (complete main)
Идентификатор кодека : A_AC3
Продолжительность : 56 м.
Вид битрейта : Постоянный
Битрейт : 192 Кбит/сек
Каналы : 2 канала
Расположение каналов : Front: L R
Частота : 48,0 КГц
Битовая глубина : 16 бит
Метод сжатия : С потерями
Задержка видео : 3 с. 68 мс.
Размер потока : 77,7 Мбайт (10%)
Заголовок : Источник DVD
Язык : Russian
Default : Да
Forced : Нет
Меню
00:00:00.000 : ru:00:00:00.000000000
00:05:00.000 : :00:05:00.000000000
00:10:00.000 : :00:10:00.000000000
00:15:00.000 : :00:15:00.000000000
00:20:00.000 : :00:20:00.000000000
00:25:00.000 : :00:25:00.000000000
00:30:00.000 : :00:30:00.000000000
00:35:00.000 : :00:35:00.000000000
00:40:00.000 : :00:40:00.000000000
00:45:00.000 : :00:45:00.000000000
00:50:00.000 : :00:50:00.000000000

Скриншоты

Раздача от группы:
[Профиль] [ЛС]
Кто просматривает тему:

Форум Тема Автор Размер
Nat Geo Wild Nat Geo Wild: Жизнь необычной птицы / Strangest Bird Alive (Mike Birkhead, Martyn Colbeck) [2015 г., Документальный, природа, флора, фауна, HDTVRip-AVC 720p] skorpionN 1.59 GB
Фильмы 2014 года Жестокое и необычное / Cruel & Unusual (2014) BDRip | L1 BOSS 1.33 GB
Мультфильмы СССР Май-мастеровой, необыкновенная машина и король-вояка (1971) TVRip Белочка 191 MB
Отечественные мультфильмы Необыкновенная охота (Отар Андроникашвили) [1980, мультфильм для взрослых, TeleSynch] TorrentFilm 433 MB
Отечественные мультфильмы Необыкновенное путешествие Серафимы (2015) WEB-DL 720p | iTunes достали все 2.32 GB
Отечественные мультфильмы Необыкновенное путешествие Серафимы (2015) WEB-DLRip | iTunes достали все 1.36 GB
Отечественные мультфильмы Необыкновенные приключения Карика и Вали (Александр Люткевич) [2005, мультфильм, DVDRip] reversefile 770 MB
Документальные HD Необычная еда. Америка / Bizarre Foods America [2012-2014, Познавательный, Travel Channel HD, HDTV 1080i] TorrentFilm 34.49 GB
Показать сообщения:    

Текущее время: Сегодня 22:42

Часовой пояс: GMT



Вы не можете начинать темы
Вы не можете отвечать на сообщения
Вы не можете редактировать свои сообщения
Вы не можете удалять свои сообщения
Вы не можете голосовать в опросах
Вы не можете прикреплять файлы к сообщениям
Вы не можете скачивать файлы