Необыкновенное путешествие Серафимы (2015) WEB-DL 720p | iTunes

 
Автор Сообщение

достали все ®

Пол:

Стаж: 1 год 8 месяцев

Сообщений: 6565



Награды: 12 (Подробнее)

Mega Seeder 2 (Количество: 1) Top Releaser 2 (Количество: 1) Mega Seeder 3 (Количество: 1)
Торрент-статистика

Создавать темы 17-Сен-2015 03:46

[Цитировать]

Информация о фильме
Название: Необыкновенное путешествие Серафимы
Оригинальное название: Необыкновенное путешествие Серафимы
Год выхода: 2015
Жанр: мультфильм, фэнтези, приключения
Режиссер: Сергей Антонов
Роли озвучили: Александр Михайлов, Алина Михайлова, Виктория Дробина, Вера Васильева, Анастасия Бартяева, Владимир Левашёв, Наталья Грачёва, Анна Волкова, Анна Мещан, Мария Мещан
О фильме: Сима Воскресенская, лишившаяся родителей в самом начале войны, живет в детском доме и втайне хранит нашейный крест, напоминающий ей о любимой семье. Однажды Сима знакомится с Ритой — девочкой, которая открывает ей, что дом полон секретов и призраков, и предлагает ей отправиться в загадочную каморку под лестницей, чтобы посмотреть на одного из них. Кто бы мог подумать, что приглашение поможет Серафиме раскрыть тайну детского дома и пролить свет на судьбу родителей…

Выпущено: Россия
Продолжительность: 01:14:57
Озвучивание: Оригинальное [iTunes]
Файл
Формат: MKV
Качество: WEB-DL 720p
Видео: 3968 kb/s, 1280x720
Аудио: AC3, 384 kb/s (6 ch)

MI

Format : Matroska
Format version : Version 4 / Version 2
File size : 2.32 GiB
Duration : 1h 14mn
Overall bit rate : 4 440 Kbps
Encoded date : UTC 2015-09-16 19:06:18
Writing application : mkvmerge v6.9.1 ('Blue Panther') 64bit built on Apr 18 2014 18:23:38
Writing library : libebml v1.3.0 + libmatroska v1.4.1
Video
ID : 1
Format : AVC
Format/Info : Advanced Video Codec
Format profile : High@L3.1
Format settings, CABAC : No
Format settings, ReFrames : 2 frames
Codec ID : V_MPEG4/ISO/AVC
Duration : 1h 14mn
Bit rate : 3 968 Kbps
Width : 1 280 pixels
Height : 720 pixels
Display aspect ratio : 16:9
Frame rate mode : Constant
Frame rate : 24.000 fps
Color space : YUV
Chroma subsampling : 4:2:0
Bit depth : 8 bits
Scan type : Progressive
Bits/(Pixel*Frame) : 0.179
Stream size : 2.08 GiB (89%)
Language : English
Default : Yes
Forced : No
Color range : Limited
Color primaries : BT.709
Transfer characteristics : BT.709
Matrix coefficients : BT.709
Audio
ID : 2
Format : AC-3
Format/Info : Audio Coding 3
Mode extension : CM (complete main)
Format settings, Endianness : Big
Codec ID : A_AC3
Duration : 1h 14mn
Bit rate mode : Constant
Bit rate : 384 Kbps
Channel(s) : 6 channels
Channel positions : Front: L C R, Side: L R, LFE
Sampling rate : 48.0 KHz
Bit depth : 16 bits
Compression mode : Lossy
Stream size : 206 MiB (9%)
Language : Russian
Default : Yes
Forced : No
Menu
00:00:00.000 : en:Глава 1
00:05:05.000 : en:Глава 2
00:09:42.000 : en:Глава 3
00:15:19.000 : en:Глава 4
00:20:48.000 : en:Глава 5
00:25:01.000 : en:Глава 6
00:30:37.000 : en:Глава 7
00:35:53.000 : en:Глава 8
00:40:52.000 : en:Глава 9
00:47:31.000 : en:Глава 10
00:52:51.000 : en:Глава 11
00:59:04.000 : en:Глава 12
01:05:56.000 : en:Глава 13

Скриншоты



[Профиль] [ЛС]
Кто просматривает тему:

Форум Тема Автор Размер
Nat Geo Wild Nat Geo Wild: Жизнь необычной птицы / Strangest Bird Alive (Mike Birkhead, Martyn Colbeck) [2015 г., Документальный, природа, флора, фауна, HDTVRip-AVC 720p] skorpionN 1.59 GB
Фильмы 2014 года Жестокое и необычное / Cruel & Unusual (2014) BDRip | L1 BOSS 1.33 GB
Мультфильмы СССР Май-мастеровой, необыкновенная машина и король-вояка (1971) TVRip Белочка 191 MB
Отечественные мультфильмы Необыкновенная охота (Отар Андроникашвили) [1980, мультфильм для взрослых, TeleSynch] TorrentFilm 433 MB
Отечественные мультфильмы Необыкновенное путешествие Серафимы (2015) WEB-DLRip | iTunes достали все 1.36 GB
Отечественные мультфильмы Необыкновенные приключения Карика и Вали (Александр Люткевич) [2005, мультфильм, DVDRip-AVC] reversefile 770 MB
Отечественные мультфильмы Необыкновенные приключения Карика и Вали (Александр Люткевич) [2005, мультфильм, DVDRip] reversefile 770 MB
Документальные HD Необычная еда. Америка / Bizarre Foods America [2012-2014, Познавательный, Travel Channel HD, HDTV 1080i] TorrentFilm 34.49 GB
Показать сообщения:    

Текущее время: Сегодня 20:10

Часовой пояс: GMT



Вы не можете начинать темы
Вы не можете отвечать на сообщения
Вы не можете редактировать свои сообщения
Вы не можете удалять свои сообщения
Вы не можете голосовать в опросах
Вы не можете прикреплять файлы к сообщениям
Вы не можете скачивать файлы