Необыкновенная охота (Отар Андроникашвили) [1980, мультфильм для взрослых, TeleSynch]

 
Автор Сообщение

TorrentFilm ®

Пол:

Стаж: 2 года

Сообщений: 7741



Награды: Нет

Торрент-статистика

Создавать темы 03-Янв-2016 00:05

[Цитировать]

Необыкновенная охота
Страна: СССР
Студия: Грузия-фильм
Жанр: для взрослых
Продолжительность: 00:08:39
Год выпуска: 1980
Русские субтитры: нет
Режиссёр: Отар Андроникашвили
Описание: Охотник решил сходить на охоту. Но пока ждал транспорт, задремал на остановке. И приснился ему сон, в котором его охота оказалась очень неудачной, в связи с тем, что место, куда он собирался ехать, было настолько загрязнено, что охота закончилась достаточно плачевно.
Качество: TeleSynch
Формат: MPG
Видео: 720x576 (4:3) @ 768x576, 25.000 fps, MPEG-2 Video, ~6671 Kbps, 0.643 bits/pixel
Аудио: 48.0 KHz, AC3, 1 ch, 192 Kbps
Субтитры: отсутствуют

MediaInfo

GeneralComplete name : Необыкновенная охота (Грузия-фильм) 1980.mpgFormat : MPEG-PSFile size : 433 MiBDuration : 8mn 38sOverall bit rate mode : VariableOverall bit rate : 7 002 Kbps
VideoID : 224 (0xE0)Format : MPEG VideoFormat version : Version 2Format profile : Main@MainFormat settings, BVOP : YesFormat settings, Matrix : DefaultFormat settings, GOP : VariableDuration : 8mn 38sBit rate mode : VariableBit rate : 6 671 KbpsMaximum bit rate : 9 400 KbpsWidth : 720 pixelsHeight : 576 pixelsDisplay aspect ratio : 4:3Frame rate : 25.000 fpsStandard : PALColor space : YUVChroma subsampling : 4:2:0Bit depth : 8 bitsScan type : InterlacedScan order : Top Field FirstCompression mode : LossyBits/(Pixel*Frame) : 0.643Time code of first frame : 00:00:00:00Time code source : Group of pictures headerStream size : 413 MiB (95%)Color primaries : BT.601 PALTransfer characteristics : BT.470 System B, BT.470 System GMatrix coefficients : BT.601
AudioID : 189 (0xBD)-128 (0x80)Format : AC-3Format/Info : Audio Coding 3Mode extension : CM (complete main)Format settings, Endianness : BigMuxing mode : DVD-VideoDuration : 8mn 38sBit rate mode : ConstantBit rate : 192 KbpsChannel(s) : 1 channelChannel positions : Front: CSampling rate : 48.0 KHzBit depth : 16 bitsCompression mode : LossyStream size : 11.9 MiB (3%)

Скриншоты

[Профиль] [ЛС]
Кто просматривает тему:

Форум Тема Автор Размер
Nat Geo Wild Nat Geo Wild: Жизнь необычной птицы / Strangest Bird Alive (Mike Birkhead, Martyn Colbeck) [2015 г., Документальный, природа, флора, фауна, HDTVRip-AVC 720p] skorpionN 1.59 GB
Фильмы 2014 года Жестокое и необычное / Cruel & Unusual (2014) BDRip | L1 BOSS 1.33 GB
Мультфильмы СССР Май-мастеровой, необыкновенная машина и король-вояка (1971) TVRip Белочка 191 MB
Отечественные мультфильмы Необыкновенное путешествие Серафимы (2015) WEB-DL 720p | iTunes достали все 2.32 GB
Отечественные мультфильмы Необыкновенное путешествие Серафимы (2015) WEB-DLRip | iTunes достали все 1.36 GB
Отечественные мультфильмы Необыкновенные приключения Карика и Вали (Александр Люткевич) [2005, мультфильм, DVDRip-AVC] reversefile 770 MB
Отечественные мультфильмы Необыкновенные приключения Карика и Вали (Александр Люткевич) [2005, мультфильм, DVDRip] reversefile 770 MB
Документальные HD Необычная еда. Америка / Bizarre Foods America [2012-2014, Познавательный, Travel Channel HD, HDTV 1080i] TorrentFilm 34.49 GB
Показать сообщения:    

Текущее время: Сегодня 08:10

Часовой пояс: GMT



Вы не можете начинать темы
Вы не можете отвечать на сообщения
Вы не можете редактировать свои сообщения
Вы не можете удалять свои сообщения
Вы не можете голосовать в опросах
Вы не можете прикреплять файлы к сообщениям
Вы не можете скачивать файлы