Необратимость / Irreversible (2002) BDRip 1080p | P2

 
Автор Сообщение

sergej644 ®

Пол:

Стаж: 5 лет 7 месяцев

Сообщений: 6131

Откуда: Soviet Union



Награды: 9 (Подробнее)

Top Seeder 5 (Количество: 1) Mega Seeder 3 (Количество: 1) Top Seeder 2 (Количество: 1)
Торрент-статистика

Создавать темы 24-Янв-2015 00:11

[Цитировать]

Информация о фильме
Название: Необратимость
Оригинальное название: Irreversible
Страна: Франция
Жанр: триллер, драма, криминал
Год выпуска: 2002
Продолжительность: 01:33:27
Перевод: Профессиональный (двухголосый закадровый)
Cубтитры: английские, русские
Оригинальная аудиодорожка: французский
Режиссер: Гаспар Ноэ / Gaspar Noé
В ролях: Моника Беллуччи (Alex), Венсан Кассель (Marcus), Альбер Дюпонтель (Pierre), Джо Престиа (Le Tenia), Филипп Наон (L'homme), Стефан Друо (Stéphane), Жан-Луи Кост (Fistman), Мишель Гондуэн (Mick), Мурад Хима (Mourad), Эллаль (Layde), Нато (Commissaire), Fesche (Chauffeur Taxi)
Описание: История раскручивается из конца в начало. Темнота ночи, багровые отблески на стенах притона, бледные, как простыня, лица. Герой мечется в лабиринте лестниц и переходов одного из подпольных гей-клубов. Цель — найти и убить человека, которого он никогда даже не видел в глаза. Но у него есть веская причина ненавидеть: незнакомец до смерти изнасиловал его подругу, с которой случайно столкнулся в безлюдном городском переходе…

Качество видео: BDRip 1080p
Формат видео: MKV
Видео: x.264, 1920x856, 25 fps, 9393 kbps
Аудио 1: DTS, 48000 Hz, 755 kbps, 5.1 channels- RUS
Аудио 2: AC3, 48000 Hz, 640 kbps, 5.1 channels - FRE
Формат субтитров: softsub (SRT)Отчёт MediaInfo

Отчёт MediaInfo

Format : Matroska
Format version : Version 4 / Version 2
File size : 7.04 GiB
Duration : 1h 33mn
Overall bit rate : 10.8 Mbps
Movie name : Необратимость / Irreversible (2002) BDRip 1080p
Encoded date : UTC 2014-07-28 10:36:37
Writing application : mkvmerge v7.0.0 ('Where We Going') 32bit built on Jun 9 2014 15:08:34
Writing library : libebml v1.3.0 + libmatroska v1.4.1
Cover : Yes
Video
ID : 1
Format : AVC
Format/Info : Advanced Video Codec
Format profile : High@L4.1
Format settings, CABAC : Yes
Format settings, ReFrames : 5 frames
Codec ID : V_MPEG4/ISO/AVC
Duration : 1h 33mn
Bit rate : 9 393 Kbps
Width : 1 920 pixels
Height : 856 pixels
Display aspect ratio : 2.25:1
Frame rate mode : Constant
Frame rate : 25.000 fps
Color space : YUV
Chroma subsampling : 4:2:0
Bit depth : 8 bits
Scan type : Progressive
Bits/(Pixel*Frame) : 0.229
Stream size : 5.99 GiB (85%)
Writing library : x264 core 142 r2431 ac76440
Encoding settings : cabac=1 / ref=5 / deblock=1:0:0 / analyse=0x3:0x113 / me=umh / subme=8 / psy=1 / psy_rd=1.00:0.00 / mixed_ref=1 / me_range=16 / chroma_me=1 / trellis=1 / 8x8dct=1 / cqm=0 / deadzone=21,11 / fast_pskip=1 / chroma_qp_offset=-2 / threads=12 / lookahead_threads=2 / sliced_threads=0 / nr=0 / decimate=1 / interlaced=0 / bluray_compat=0 / constrained_intra=0 / bframes=3 / b_pyramid=2 / b_adapt=2 / b_bias=0 / direct=3 / weightb=1 / open_gop=0 / weightp=2 / keyint=250 / keyint_min=25 / scenecut=40 / intra_refresh=0 / rc_lookahead=50 / rc=2pass / mbtree=1 / bitrate=9393 / ratetol=1.0 / qcomp=0.60 / qpmin=0 / qpmax=69 / qpstep=4 / cplxblur=20.0 / qblur=0.5 / vbv_maxrate=62500 / vbv_bufsize=78125 / nal_hrd=none / filler=0 / ip_ratio=1.40 / aq=1:1.00
Language : French
Default : Yes
Forced : No
Audio #1
ID : 2
Format : DTS
Format/Info : Digital Theater Systems
Mode : 16
Format settings, Endianness : Big
Codec ID : A_DTS
Duration : 1h 33mn
Bit rate mode : Constant
Bit rate : 755 Kbps
Channel(s) : 6 channels
Channel positions : Front: L C R, Side: L R, LFE
Sampling rate : 48.0 KHz
Bit depth : 24 bits
Compression mode : Lossy
Stream size : 505 MiB (7%)
Language : Russian
Default : Yes
Forced : No
Audio #2
ID : 3
Format : AC-3
Format/Info : Audio Coding 3
Mode extension : CM (complete main)
Format settings, Endianness : Big
Codec ID : A_AC3
Duration : 1h 33mn
Bit rate mode : Constant
Bit rate : 640 Kbps
Channel(s) : 6 channels
Channel positions : Front: L C R, Side: L R, LFE
Sampling rate : 48.0 KHz
Bit depth : 16 bits
Compression mode : Lossy
Stream size : 428 MiB (6%)
Language : French
Default : No
Forced : No
Text #1
ID : 4
Format : UTF-8
Codec ID : S_TEXT/UTF8
Codec ID/Info : UTF-8 Plain Text
Language : Russian
Default : No
Forced : No
Text #2
ID : 5
Format : UTF-8
Codec ID : S_TEXT/UTF8
Codec ID/Info : UTF-8 Plain Text
Language : English
Default : No
Forced : No
Menu
00:00:00.000 : en:00:00:00.000
00:04:28.319 : en:00:04:28.319
00:08:08.600 : en:00:08:08.600
00:11:44.038 : en:00:11:44.038
00:14:51.918 : en:00:14:51.918
00:18:28.880 : en:00:18:28.880
00:24:29.278 : en:00:24:29.278
00:29:41.519 : en:00:29:41.519
00:34:10.480 : en:00:34:10.480
00:40:53.000 : en:00:40:53.000
00:53:57.880 : en:00:53:57.880
00:58:42.199 : en:00:58:42.199
01:06:19.360 : en:01:06:19.360
01:15:22.600 : en:01:15:22.600
01:28:04.439 : en:01:28:04.439
01:33:15.158 : en:01:33:15.158

Скриншоты

Резервные скриншоты

-Ограничение по возрасту 18+ !
[Профиль] [ЛС]
Показать сообщения:    

Текущее время: Сегодня 21:26

Часовой пояс: GMT



Вы не можете начинать темы
Вы не можете отвечать на сообщения
Вы не можете редактировать свои сообщения
Вы не можете удалять свои сообщения
Вы не можете голосовать в опросах
Вы не можете прикреплять файлы к сообщениям
Вы не можете скачивать файлы