Ненастоящая девочка (Октябрина Потапова) [2012, короткометражный анимационный фильм, WEBRip]

 
Автор Сообщение

TorrentFilm ®

Пол:

Стаж: 2 года

Сообщений: 7741



Награды: Нет

Торрент-статистика

Создавать темы 01-Янв-2016 00:21

[Цитировать]

Ненастоящая девочка Год выпуска: 2012
Страна: Россия Союзмультфильм
Жанр: короткометражный анимационный фильм
Продолжительность: 00:07:05
Перевод: не требуется
Субтитры: отсутствуют- Режиссёр: Октябрина Потапова- Описание: Замечательный мультфильм, снятый по мотивам сказки Нины Гернет. История под названием «Ненастоящая девочка» расскажет о том, как добрый лесник спас зайчишку от кровожадного волка. Этот милый мультик можно посмотреть онлайн всей семьей в нашем интернет-кинотеатре.
Идет на лыжах по заснеженному лесу дедушка по имени Григорий Львович Фомин. Вдруг подбегает к нему маленький зайчик, трясущийся от страха. Что же случилось с малышом? Оказывается, за ним гонится волк, который того и гляди настигнет зайчишку. К счастью, у доброго дедушки найдется совет на любой случай. Григорий Львович предлагает зайцу отличную маскировку: у него как раз с собой есть шубка, купленная для внучки. Платочек, который скроет длинные уши, да и детские валенки зайцу в самый раз. Наряд пошел на пользу – зайчик стал похож на маленькую девочку. В таком виде волк его точно не узнает! Посадил Григорий Львович зайку к себе на плечи и пошли они по дороге дальше, а тут им навстречу серый злодей…-релиз: - Качество: WEBRip
Формат: AVI
Видео кодек: XviD
Аудио кодек: MP3
Видео: 640x480 , (1.33:1), 25 fps, XviD build 65 ~2276 kbps avg, 0.30 bit/pixel
Аудио: 48 kHz, MPEG Layer 3, 2 ch, ~128.00 kbps avg

MediaInfo

Общее
Полное имя : C:\Ненастоящая девочка\Ненастоящая девочка.2012.WEBRip.avi
Формат : AVI
Формат/Информация : Audio Video Interleave
Размер файла : 122 Мбайт
Продолжительность : 7 м. 5 с.
Общий поток : 2415 Кбит/сек
Программа кодирования : VirtualDubMod 1.5.10.3 (build 2550/release)
Библиотека кодирования : VirtualDubMod build 2550/release
Видео
Идентификатор : 0
Формат : MPEG-4 Visual
Профиль формата : Advanced Simple@L5
Параметр BVOP формата : 2
Параметр QPel формата : Нет
Параметр GMC формата : Без точки перехода
Параметр матрицы формата : Выборочная
Идентификатор кодека : XVID
Идентификатор кодека/Подсказка : XviD
Продолжительность : 7 м. 5 с.
Битрейт : 2277 Кбит/сек
Ширина : 640 пикселей
Высота : 480 пикселей
Соотношение сторон : 4:3
Частота кадров : 25,000 кадров/сек
Цветовое пространство : YUV
Субдискретизация насыщенности : 4:2:0
Битовая глубина : 8 бит
Тип развёртки : Прогрессивная
Метод сжатия : С потерями
Бит/(Пиксели*Кадры) : 0.296
Размер потока : 115 Мбайт (94%)
Библиотека кодирования : XviD 65
Аудио
Идентификатор : 1
Формат : MPEG Audio
Версия формата : Version 1
Профиль формата : Layer 3
Режим : Joint stereo
Расширение режима : MS Stereo
Идентификатор кодека : 55
Идентификатор кодека/Подсказка : MP3
Продолжительность : 7 м. 4 с.
Вид битрейта : Постоянный
Битрейт : 128 Кбит/сек
Каналы : 2 канала
Частота : 48,0 КГц
Метод сжатия : С потерями
Размер потока : 6,48 Мбайт (5%)
Выравнивание : Соединение по промежуткам
Продолжительность промежутка : 40 мс. (1,00 видеокадр)
Время предзагрузки промежутка : 504 мс.
Библиотека кодирования : LAME3.99r
Настройки программы : -m j -V 4 -q 3 -lowpass 17 -b 128
[Профиль] [ЛС]
Показать сообщения:    

Текущее время: Сегодня 12:51

Часовой пояс: GMT



Вы не можете начинать темы
Вы не можете отвечать на сообщения
Вы не можете редактировать свои сообщения
Вы не можете удалять свои сообщения
Вы не можете голосовать в опросах
Вы не можете прикреплять файлы к сообщениям
Вы не можете скачивать файлы