Ненаписанное письмо (Евгений Сивоконь) [1985, рисованный мультфильм, TVRip]

 
Автор Сообщение

TorrentFilm ®

Пол:

Стаж: 2 года

Сообщений: 7741



Награды: Нет

Торрент-статистика

Создавать темы 28-Авг-2015 00:09

[Цитировать]

Ненаписанное письмо
Страна: СССР (Украинская республика)
Жанр: рисованный мультфильм
Продолжительность: 00:09:13
Год выпуска: 1985
Режиссёр: Евгений Сивоконь
Композитор: Вадим Храпачёв
Описание: Лирический этюд о разлуке. Житель большого города постоянно вспоминает девушку, с которой познакомился летом на море, и хочет написать ей письмо, но никак не может решиться...
Доп. информация: Диплом международного фестиваля в Хиросиме (1987)
Качество: TVRip
Формат: AVI
Видео: 2113 kbps, 528х400 (4:3), 25.000 fps, MPEG-4 Visual (XviD)
Аудио: 96 kbps, 48.0 kHz, 1 channel, MPEG Audio (MP3)
Субтитры: отсутствуют

Подробные технические данные

GeneralComplete name : Ненаписанное письмо (1985).aviFormat : AVIFormat/Info : Audio Video InterleaveFile size : 146 MiBDuration : 9mn 13sOverall bit rate : 2 222 KbpsWriting application : Lavf55.33.100
VideoID : 0Format : MPEG-4 VisualFormat profile : Advanced Simple@L5Format settings, BVOP : NoFormat settings, QPel : NoFormat settings, GMC : No warppointsFormat settings, Matrix : Default (H.263)Codec ID : XVIDCodec ID/Hint : XviDDuration : 9mn 13sBit rate : 2 113 KbpsWidth : 528 pixelsHeight : 400 pixelsDisplay aspect ratio : 4:3Frame rate : 25.000 fpsColor space : YUVChroma subsampling : 4:2:0Bit depth : 8 bitsScan type : ProgressiveCompression mode : LossyBits/(Pixel*Frame) : 0.400Stream size : 139 MiB (95%)Writing library : XviD 64
AudioID : 1Format : MPEG AudioFormat version : Version 1Format profile : Layer 3Codec ID : 55Codec ID/Hint : MP3Duration : 9mn 12sBit rate mode : ConstantBit rate : 96.0 KbpsChannel(s) : 1 channelSampling rate : 48.0 KHzCompression mode : LossyStream size : 6.33 MiB (4%)Alignment : Aligned on interleavesInterleave, duration : 24 ms (0.60 video frame)Interleave, preload duration : 24 msWriting library : LAME3.99.5

Скриншоты

[Профиль] [ЛС]
Кто просматривает тему:

Показать сообщения:    

Текущее время: Сегодня 10:07

Часовой пояс: GMT



Вы не можете начинать темы
Вы не можете отвечать на сообщения
Вы не можете редактировать свои сообщения
Вы не можете удалять свои сообщения
Вы не можете голосовать в опросах
Вы не можете прикреплять файлы к сообщениям
Вы не можете скачивать файлы