Немного о Себе (Светлана Андрианова) [2013, мультфильм, WEBRip-AVC]

 
Автор Сообщение

TorrentFilm ®

Пол:

Стаж: 2 года

Сообщений: 7741



Награды: Нет

Торрент-статистика

Создавать темы 05-Янв-2015 00:01

[Цитировать]

Немного о Себе
Страна: Россия
Жанр: мультфильм
Продолжительность: 00:04:54
Год выпуска: 2013
Режиссёр: Светлана Андрианова
Описание: Используя игру слов и образов, мультфильм рассказывает о Себе: кто такой этот Себь, и как в нём разобраться.
Доп. информация: Приз детского жюри на кинофестивале «Золотая Рыбка» (2014)
Качество: WEBRip-AVC
Формат: MP4
Видео: 849 kbps, 1280х720 (16:9), 25.000 fps, AVC (High@L3.1)
Аудио: 192 kbps, 44.1 kHz, 2 channels, AAC (LC)
Субтитры: отсутствуют

Подробные технические данные

GeneralComplete name : Немного о себе (2013).mp4Format : MPEG-4Format profile : Base Media / Version 2Codec ID : mp42File size : 36.6 MiBDuration : 4mn 54sOverall bit rate mode : VariableOverall bit rate : 1 043 KbpsEncoded date : UTC 2014-05-08 16:25:55Tagged date : UTC 2014-05-08 16:25:55gsst : 0gstd : 294660gssd : B4A7DD885MH1412356593164740gshh : r5---sn-cg07lue6.googlevideo.com
VideoID : 1Format : AVCFormat/Info : Advanced Video CodecFormat profile : High@L3.1Format settings, CABAC : YesFormat settings, ReFrames : 1 frameFormat settings, GOP : M=1, N=60Codec ID : avc1Codec ID/Info : Advanced Video CodingDuration : 4mn 54sBit rate : 849 KbpsMaximum bit rate : 3 964 KbpsWidth : 1 280 pixelsHeight : 720 pixelsDisplay aspect ratio : 16:9Frame rate mode : ConstantFrame rate : 25.000 fpsColor space : YUVChroma subsampling : 4:2:0Bit depth : 8 bitsScan type : ProgressiveBits/(Pixel*Frame) : 0.037Stream size : 29.8 MiB (81%)Tagged date : UTC 2014-05-08 16:25:56
AudioID : 2Format : AACFormat/Info : Advanced Audio CodecFormat profile : LCCodec ID : 40Duration : 4mn 54sBit rate mode : VariableBit rate : 192 KbpsMaximum bit rate : 201 KbpsChannel(s) : 2 channelsChannel positions : Front: L RSampling rate : 44.1 KHzCompression mode : LossyStream size : 6.74 MiB (18%)Title : IsoMedia File Produced by Google, 5-11-2011Encoded date : UTC 2014-05-08 16:25:55Tagged date : UTC 2014-05-08 16:25:56

Скриншоты

[Профиль] [ЛС]
Показать сообщения:    

Текущее время: Сегодня 06:14

Часовой пояс: GMT



Вы не можете начинать темы
Вы не можете отвечать на сообщения
Вы не можете редактировать свои сообщения
Вы не можете удалять свои сообщения
Вы не можете голосовать в опросах
Вы не можете прикреплять файлы к сообщениям
Вы не можете скачивать файлы