Немезида 2: Невидимка / Nemesis 2: Nebula (Альберт Пьюн / Albert Pyun) [1995, США, фантастика, боевик, BDRemux 1080p] 2x AVO (Володарский, Сербин) + Sub Eng + Original Eng

 
Автор Сообщение

Создавать темы 19-Июл-2014 15:15

Немезида 2: Невидимка / Nemesis 2: Nebula Страна: США
Жанр: фантастика, боевик
Год выпуска: 1995
Продолжительность: 01:24:29
Перевод: Авторский (одноголосый закадровый) Леонид Володарский
Перевод 2: Авторский (одноголосый закадровый) Юрий Сербин
Cубтитры: Английские, немецкие
Оригинальная аудиодорожка: английский
Режиссер: Альберт Пьюн / Albert Pyun
В ролях: Сью Прайс, Чад Стахелски, Тина Коте, Эрл Уайт, Джахи Дж.Дж. Зури, Карен Стадер, Шелтон Бейли, Донья Динна, Джон Х. Эпштейн, Шэрон Брунэо, Дэбби Маггли, Захари Стадер, Дэйв Фишер, Бобби Браун
Описание: Война между людьми и киборгами началась 73 года назад, в 2027 году. Войну выиграли киборги, и люди стали их рабами. Ученый движения сопротивления создал супермолекулу ДНК. Женщина Зана была избрана, чтобы родить этого человека. Киборги узнали об опасности и начали охоту при помощи главного охотника Небьюлы.
Зана знала, где был спрятан корабль, способный путешествовать во времени. Она попадает в Западную Африку 1980 года, где идет бесконечная межплеменная война. Там она оставляет свою дочь Алекс, думая, что когда-нибудь она придет к ней и выиграет войну с киборгами. Но сама она почти сразу же погибает. Ребенок остается один, и его усыновляет местное племя храбрецов. Проходит 20 лет. В Америке будущего киборги выясняют, где повзрослевший ребенок, и отправляют туда охотника Небьюлу…
Сэмпл: https://yadi.sk/i/zoxGnliVWUgHd
Тип релиза: BDRemux 1080p
Контейнер: MKV
Видео: MPEG-4 AVC, 25.7 Мбит/с, 1920x1080, 24.000 кадр/с
Аудио: Русский (AC3, 2 ch, 192 Кбит/с) / Авторский одноголосый (Леонид Володарский)
Аудио 2: Русский (AC3, 2 ch, 192 Кбит/с) / Авторский одноголосый (Юрий Сербин)
Аудио 3: Английский (AC3, 6 ch, 448 Кбит/с)

MediaInfo

Общее
Уникальный идентификатор : 192682663089925254406940982998969194989 (0x90F554C0688107339BEA4066D19599ED)
Полное имя : C:\Users\ЯРОСЛАВ\Desktop\Сверхъестественное\Nemezida.2.Nevidimka.1995.x264.Blu-ray.Remux.1080p.mkv
Формат : Matroska
Версия формата : Version 2
Размер файла : 16,0 Гбайт
Продолжительность : 1 ч. 24 м.
Режим общего битрейта : Переменный
Общий поток : 27,0 Мбит/сек
Название фильма : Nemezida 2 Nevidimka (1995) Blu-ray Remux 1080p =Mediaclub= -[Викс]-
Дата кодирования : UTC 2014-07-12 15:02:23
Программа кодирования : mkvmerge v5.8.0 ('No Sleep / Pillow') built on Sep 2 2012 15:37:04
Библиотека кодирования : libebml v1.2.3 + libmatroska v1.3.0
Видео
Идентификатор : 1
Формат : AVC
Формат/Информация : Advanced Video Codec
Профиль формата : Main@L4.1
Параметр CABAC формата : Да
Параметр ReFrames формата : 3 кадра
Параметр GOP формата : M=3, N=18
Идентификатор кодека : V_MPEG4/ISO/AVC
Продолжительность : 1 ч. 24 м.
Вид битрейта : Переменный
Битрейт : 25,7 Мбит/сек
Максимальный битрейт : 35,0 Мбит/сек
Ширина : 1920 пикселей
Высота : 1080 пикселей
Соотношение сторон : 16:9
Режим частоты кадров : Постоянный
Частота кадров : 24,000 кадра/сек
Стандарт вещания : NTSC
Цветовое пространство : YUV
Субдискретизация насыщенности : 4:2:0
Битовая глубина : 8 бит
Тип развёртки : Прогрессивная
Бит/(Пиксели*Кадры) : 0.516
Размер потока : 15,1 Гбайт (95%)
Язык : English
Default : Нет
Forced : Нет
Аудио #1
Идентификатор : 2
Формат : AC-3
Формат/Информация : Audio Coding 3
Расширение режима : CM (complete main)
Параметр Endianness формата : Big
Идентификатор кодека : A_AC3
Продолжительность : 1 ч. 24 м.
Вид битрейта : Постоянный
Битрейт : 192 Кбит/сек
Каналы : 2 канала
Расположение каналов : Front: L R
Частота : 48,0 КГц
Битовая глубина : 16 бит
Метод сжатия : С потерями
Размер потока : 116 Мбайт (1%)
Заголовок : AP Volodarskij
Язык : Russian
Default : Нет
Forced : Нет
Аудио #2
Идентификатор : 3
Формат : AC-3
Формат/Информация : Audio Coding 3
Расширение режима : CM (complete main)
Параметр Endianness формата : Big
Идентификатор кодека : A_AC3
Продолжительность : 1 ч. 24 м.
Вид битрейта : Постоянный
Битрейт : 192 Кбит/сек
Каналы : 2 канала
Расположение каналов : Front: L R
Частота : 48,0 КГц
Битовая глубина : 16 бит
Метод сжатия : С потерями
Размер потока : 116 Мбайт (1%)
Заголовок : AP Serbin
Язык : Russian
Default : Нет
Forced : Нет
Аудио #3
Идентификатор : 4
Формат : AC-3
Формат/Информация : Audio Coding 3
Расширение режима : CM (complete main)
Параметр Endianness формата : Big
Идентификатор кодека : A_AC3
Продолжительность : 1 ч. 24 м.
Вид битрейта : Постоянный
Битрейт : 448 Кбит/сек
Каналы : 6 каналов
Расположение каналов : Front: L C R, Side: L R, LFE
Частота : 48,0 КГц
Битовая глубина : 16 бит
Метод сжатия : С потерями
Размер потока : 271 Мбайт (2%)
Язык : English
Default : Нет
Forced : Нет
Текст #1
Идентификатор : 5
Формат : PGS
Идентификатор кодека : S_HDMV/PGS
Идентификатор кодека/Информация : The same subtitle format used on BDs/HD-DVDs
Язык : English
Default : Нет
Forced : Нет
Текст #2
Идентификатор : 6
Формат : PGS
Идентификатор кодека : S_HDMV/PGS
Идентификатор кодека/Информация : The same subtitle format used on BDs/HD-DVDs
Язык : German
Default : Нет
Forced : Нет
Меню
00:00:00.000 : en:Chapter 01
00:00:00.750 : en:Chapter 02
00:12:26.833 : en:Chapter 03
00:20:07.250 : en:Chapter 04
00:30:27.291 : en:Chapter 05
00:41:03.583 : en:Chapter 06
00:56:05.666 : en:Chapter 07
01:01:08.000 : en:Chapter 08
01:13:07.958 : en:Chapter 09

Скриншоты

 
Кто просматривает тему:

Показать сообщения:    

Текущее время: Сегодня 18:48

Часовой пояс: GMT



Вы не можете начинать темы
Вы не можете отвечать на сообщения
Вы не можете редактировать свои сообщения
Вы не можете удалять свои сообщения
Вы не можете голосовать в опросах
Вы не можете прикреплять файлы к сообщениям
Вы не можете скачивать файлы