Нелепая шестёрка / The Ridiculous 6 (Фрэнк Корачи / Frank Coraci) [2015, США, комедия, вестерн, WEB-Rip] MVO

 
Автор Сообщение

TorrentFilm ®

Пол:

Стаж: 2 года

Сообщений: 7741



Награды: Нет

Торрент-статистика

Создавать темы 17-Дек-2015 00:10

[Цитировать]

Нелепая шестёрка / The Ridiculous 6- Страна: США
Жанр: комедия, вестерн
Год выпуска: 2015
Продолжительность: 01:58:59
Перевод: Любительский (многоголосый закадровый)
Cубтитры: нет
Режиссер: Фрэнк Корачи, Frank Coraci
В ролях: Адам Сэндлер, Тэйлор Лотнер, Стив Бушеми, Терри Крюс ,Роб Шнайдер, Уитни Каммингс, Харви Кейтель, Ник Нолти, Дэнни Трехо, Люк Уилсон, Хорхе Гарсиа
Описание: Комедийный вестерн расскажет историю мужчины, оставшегося в раннем детстве сиротой и выросшего в племени индейцев апачи, которые его воспитали и выучили в своих традициях и законах. Главный герой по прозвищу «Белый Нож» — преступник, который неожиданно обнаруживает, что не один на свете: у него есть пятеро сводных братьев. Объединившись, они принимают решение отыскать их отца, затерявшегося где-то на просторах Дикого Запада. Вот тут-то и начинаются настоящие приключения, которые настолько же захватывающие, насколько комичны.
Сэмпл: http://multi-up.com/1079564
Качество видео: WEB-Rip
Формат видео: AVI
Видео: MPEG-4 1359 Кбит/сек 720 x 304 (2.368) 23.976
Аудио: AC-3 384 Кбит/сек 6 каналов, 48,0 КГц

MediaInfo

Общее
Полное имя : F:\Нелепая шестёрка - 2015.avi
Формат : AVI
Формат/Информация : Audio Video Interleave
Размер файла : 1,46 Гбайт
Продолжительность : 1 ч. 59 м.
Общий поток : 1752 Кбит/сек
Название фильма : R1dicul0us.6.2015.P.WEBDLRip.1.46Gb
Программа кодирования : VirtualDubMod 1.5.10.3 | www.virtualdub-fr.org || (build 2550/release)
Формат оригинала/Имя : Movie
Видео
Идентификатор : 0
Формат : MPEG-4 Visual
Профиль формата : Advanced Simple@L5
Параметр BVOP формата : 2
Параметр QPel формата : Нет
Параметр GMC формата : Без точки перехода
Параметр матрицы формата : Default (MPEG)
Идентификатор кодека : XVID
Идентификатор кодека/Подсказка : XviD
Продолжительность : 1 ч. 59 м.
Битрейт : 1359 Кбит/сек
Ширина : 720 пикселей
Высота : 304 пикселя
Соотношение сторон : 2,35:1
Частота кадров : 23,976 кадра/сек
Цветовое пространство : YUV
Субдискретизация насыщенности : 4:2:0
Битовая глубина : 8 бит
Тип развёртки : Прогрессивная
Метод сжатия : С потерями
Бит/(Пиксели*Кадры) : 0.259
Размер потока : 1,13 Гбайт (78%)
Библиотека кодирования : XviD 67
Аудио
Идентификатор : 1
Формат : AC-3
Формат/Информация : Audio Coding 3
Расширение режима : CM (complete main)
Параметр Endianness формата : Big
Идентификатор кодека : 2000
Продолжительность : 1 ч. 59 м.
Вид битрейта : Постоянный
Битрейт : 384 Кбит/сек
Каналы : 6 каналов
Расположение каналов : Front: L C R, Side: L R, LFE
Частота : 48,0 КГц
Битовая глубина : 16 бит
Метод сжатия : С потерями
Задержка видео : 20 мс.
Размер потока : 327 Мбайт (22%)
Выравнивание : Разделение по промежуткам
Продолжительность промежутка : 42 мс. (1,00 видеокадр)
Время предзагрузки промежутка : 500 мс.

Скриншот c названием фильма

Скриншоты

[Профиль] [ЛС]
Показать сообщения:    

Текущее время: Сегодня 09:10

Часовой пояс: GMT



Вы не можете начинать темы
Вы не можете отвечать на сообщения
Вы не можете редактировать свои сообщения
Вы не можете удалять свои сообщения
Вы не можете голосовать в опросах
Вы не можете прикреплять файлы к сообщениям
Вы не можете скачивать файлы