Некрасивая Любовь (Кира Ангелина) [2015, Россия, мелодрама, HDTV 1080i] + Original Rus

 
Автор Сообщение

TorrentFilm ®

Пол:

Стаж: 2 года

Сообщений: 7741



Награды: Нет

Торрент-статистика

Создавать темы 25-Янв-2016 00:09

[Цитировать]

Некрасивая Любовь
Страна: Россия
Студия: кинокомпания Русское
Жанр: мелодрама
Год выпуска: 2015
Продолжительность: 01:30:23
Перевод: Не требуется
Cубтитры: нет
Оригинальная аудиодорожка: русский
Режиссёр: Кира Ангелина
В ролях: Дарья Екамасова, Сергей Жарков, Мария Букнис, Евгений Штырбул, Микаэлла Дель, Дмитрий Титов, Светлана Свибильская
Описание: Вся жизнь дурнушки Любы – беспросветная черная полоса. Девушка одинока, в городке над ней потешаются, а мать пытается свести ее с богатым стариком и поскорее сбыть с рук. Вероятно, «гадкого утенка» ожидал печальный финал, если б однажды доведенная до отчаяния Люба не решилась на сумасшедшую аферу, перевернувшую с ног на голову жизнь в маленьком городке. Девушка похищает деньги из банка и сбегает с «первым парнем на деревне», суля ему миллион за одну-единственную ночь...
Sample
Тип релиза: HDTV 1080i
Контейнер: TS
Видео: MPEG4 AVC Video, H264, 16:9, 1920x1080, 25 fps, 7867 kbps
Аудио: Russian (MP2, 2 ch, 192 kbps, 16 bits, 48.0 KHz) - оригинал

MediaInfo

General
ID : 1 (0x1)
Complete name : K:\Некрасивая любовь 2015 HDTV 1080i.ts
Format : MPEG-TS
File size : 5.35 GiB
Duration : 1h 30mn
Overall bit rate mode : Variable
Overall bit rate : 8 480 Kbps
Video
ID : 2911 (0xB5F)
Menu ID : 1009 (0x3F1)
Format : AVC
Format/Info : Advanced Video Codec
Format profile : High@L4.0
Format settings, CABAC : Yes
Format settings, ReFrames : 4 frames
Codec ID : 27
Duration : 1h 30mn
Bit rate : 7 867 Kbps
Width : 1 920 pixels
Height : 1 080 pixels
Display aspect ratio : 16:9
Frame rate : 25.000 fps
Color space : YUV
Chroma subsampling : 4:2:0
Bit depth : 8 bits
Scan type : MBAFF
Bits/(Pixel*Frame) : 0.152
Stream size : 4.97 GiB (93%)
Audio
ID : 2912 (0xB60)
Menu ID : 1009 (0x3F1)
Format : MPEG Audio
Format version : Version 1
Format profile : Layer 2
Codec ID : 3
Duration : 1h 30mn
Bit rate mode : Constant
Bit rate : 192 Kbps
Channel count : 2 channels
Sampling rate : 48.0 KHz
Compression mode : Lossy
Stream size : 124 MiB (2%)
Language : Russian

Скриншоты

[Профиль] [ЛС]
Показать сообщения:    

Текущее время: Сегодня 06:08

Часовой пояс: GMT



Вы не можете начинать темы
Вы не можете отвечать на сообщения
Вы не можете редактировать свои сообщения
Вы не можете удалять свои сообщения
Вы не можете голосовать в опросах
Вы не можете прикреплять файлы к сообщениям
Вы не можете скачивать файлы