Незнакомый наследник (Олег Дашкевич, Геннадий Казанский) [1974, комедия, DVB]

 
Автор Сообщение

reversefile ®

Пол:

Стаж: 4 года 5 месяцев

Сообщений: 842

Откуда: ReverseFile.org



Награды: Нет

Торрент-статистика

Создавать темы 25-Июл-2014 01:16

[Цитировать]

Незнакомый наследник
Жанр: комедия
Год выпуска: 1974
Продолжительность: 01:20:37
Режиссёр: Олег Дашкевич, Геннадий Казанский
В ролях: Михаил Пуговкин, Евгений Герасимов, Людмила Шагалова, Светлана Акимова, Людмила Гарница, Гия Перадзе, Виктор Павлов, Игорь Добряков, Сергей Данилин, Фёдор Одиноков, Владимир Приходько, Георгий Штиль, Александр Демьяненко
Описание: Четко и слаженно работала строительная бригада прораба Кузнецова. А все потому, что прораб обладал педагогическими наклонностями, что очень помогало ему в общении с молодежью. И вдруг появился новичок, который не пожелал подстраиваться под остальных...
Доп. информация: Запись потока *.ts со спутника ABS-2, 75° в.д., ремукс в *.mpg программой VideoReDo.
Качество видео: DVB
Формат видео: MPEG-PS
Видео: MPEG Video, 720(768)x576 (4:3), 25,000 кадров/сек, 3500 Кбит/сек
Аудио: MPEG Audio, 48,0 КГц, 192 Кбит/сек, 2 канала

MediaInfo

Общее
Полное имя : D:\Torrent\Незнакомый наследник (MIR).mpg
Формат : MPEG-PS
Размер файла : 2,11 Гбайт
Продолжительность : 1 ч. 20 м.
Режим общего битрейта : Переменный
Общий поток : 3740 Кбит/сек
Видео
Идентификатор : 224 (0xE0)
Формат : MPEG Video
Версия формата : Version 2
Профиль формата : Main@Main
Параметр BVOP формата : Да
Параметр матрицы формата : Выборочная
Параметр GOP формата : M=3, N=24
Продолжительность : 1 ч. 20 м.
Вид битрейта : Переменный
Битрейт : 3500 Кбит/сек
Ширина : 720 пикселей
Высота : 576 пикселей
Соотношение сторон : 4:3
Частота кадров : 25,000 кадров/сек
Стандарт вещания : PAL
Цветовое пространство : YUV
Субдискретизация насыщенности : 4:2:0
Битовая глубина : 8 бит
Тип развёртки : Чересстрочная
Порядок развёртки : Верхнее поле первое
Метод сжатия : С потерями
Бит/(Пиксели*Кадры) : 0.338
Временной код первого кадра : 00:00:00:00
Оригинал временного кода : Group of pictures header
Размер потока : 1,96 Гбайт (93%)
Аудио
Идентификатор : 192 (0xC0)
Формат : MPEG Audio
Версия формата : Version 1
Профиль формата : Layer 2
Продолжительность : 1 ч. 20 м.
Вид битрейта : Постоянный
Битрейт : 192 Кбит/сек
Каналы : 2 канала
Частота : 48,0 КГц
Метод сжатия : С потерями
Задержка видео : 19 мс.
Размер потока : 111 Мбайт (5%)
[Профиль] [ЛС]

Создавать темы 06-Авг-2015 22:06 (спустя 1 год)

Топик был перенесен из форума Кино СССР в форум Кино СССР
sergej644
 
Кто просматривает тему:

Форум Тема Автор Размер
Фильмы (HD Rips | 720p, 1080p) Идеальные незнакомцы / Perfetti sconosciuti (2016) BDRip 1080p | L1 достали все 6.2 GB
Фильмы 2016 года Идеальные незнакомцы / Perfetti sconosciuti (2016) HDRip wolf1245 956 MB
Фильмы 2011 года Идеальный незнакомец / Perfect Stranger (Джеймс Фоули / James Foley) [2007, США, Триллер, драма, криминал, детектив, BDRip] Dub reversefile 1.46 GB
Ужасы и мистика Марк Твен - Таинственный незнакомец (2016) MP3 Swager 278 MB
Отечественные мультфильмы Незнайка в Солнечном городе / 10 серий (П. Мурашов, О. Розовская, Ю. Трофимов, Б. Ардов, Н. Шорина) [1976-1977, мультфильм, DVB] TorrentFilm 4.02 GB
Мультфильмы СССР Незнайка в Солнечном городе [01-10 из 10] (1977) DVDRip от New-Team Белочка 2.18 GB
Мультфильмы СССР Незнайка в Солнечном городе [01-10 из 10] (1977) DVDRip-AVC от New-Team Белочка 2.18 GB
Отечественные мультфильмы Незнайка на Луне (Юрий Бутырин, Андрей Игнатенко, Александр Люткевич) [1997-1999, мультфильм, VHSRip-AVC] TorrentFilm 4.54 GB
Показать сообщения:    

Текущее время: Сегодня 04:48

Часовой пояс: GMT



Вы не можете начинать темы
Вы не можете отвечать на сообщения
Вы не можете редактировать свои сообщения
Вы не можете удалять свои сообщения
Вы не можете голосовать в опросах
Вы не можете прикреплять файлы к сообщениям
Вы не можете скачивать файлы