Незнакомец / El desconocido (2015) BDRip 720p | L

 
Автор Сообщение

BOSS ®

Пол:

Стаж: 2 года 1 месяц

Сообщений: 3744

Откуда: ODESSA



Награды: 20 (Подробнее)

Top Keeper 1 (Количество: 1) Top Seeder 2 (Количество: 1) Mega Releaser 1 (Количество: 1)
Торрент-статистика

Создавать темы 28-Фев-2016 16:25

[Цитировать]

Информация о фильме
Название: Незнакомец
Оригинальное название: El desconocido
Год выхода: 2015
Жанр: Триллер
Режиссер: Дэни Де Ла Торре
В ролях: Луис Тосар, Хавьер Гутьеррес, Эльвира Мингес, Фернандо Кайо, Гойя Толедо, Паула дель Рио, Марко Санс, Антонио Моурелос, Рикардо де Баррейро, Мария Мера
О фильме: Находясь в машине вместе со своими детьми, управляющий банка получает анонимный телефонный звонок. Незнакомый голос сообщает ему, что у него есть всего несколько часов, на то, чтобы найти большую сумму денег, иначе бомба под его сиденьем взорвется…

Выпущено: Испания / Atresmedia Cine, La Ferme! Productions, Televisión de Galicia (TVG) S.A., Vaca Films
Продолжительность: 01:40:31
Озвучивание: Любительское (многоголосное) [студия "Paradox" & "Omskbird records"]
Примечание: Релиз без рекламы.
Роли озвучивали: Давид Бродский, Александр Дасевич, Константин Погодаев, Павел Ярощик, Анна Тух, Ольга Федорова
Перевод: Татьяна Масаковская
Файл
Формат: MKV
Качество: BDRip 720p
Видео: MPEG-4 AVC, 3944 kb/s, 1280x544
Аудио: Russian: / Spanish: AC3, 640 kb/s (6 ch)
Субтитры: English, French, Spanish

MI

Общее
Уникальный идентификатор : 237674529677227593528634402793739852629 (0xB2CE730A1105E0348CE89ED647411B55)
Полное имя : D:загрузкиNeznaKomeC.2O15.P.BDRip.72OP.mkv
Формат : Matroska
Версия формата : Version 4 / Version 2
Размер файла : 3,74 Гбайт
Продолжительность : 1 ч. 40 м.
Общий поток : 5331 Кбит/сек
Дата кодирования : UTC 2016-02-28 11:02:46
Программа кодирования : mkvmerge v8.3.0 ('Over the Horizon') 64bit
Библиотека кодирования : libebml v1.3.1 + libmatroska v1.4.2
DURATION : 01:40:31.808000000
NUMBER_OF_FRAMES : 188494
NUMBER_OF_BYTES : 482544640
_STATISTICS_WRITING_APP : mkvmerge v8.3.0 ('Over the Horizon') 64bit
_STATISTICS_WRITING_DATE_UTC : 2016-02-28 11:02:46
_STATISTICS_TAGS : BPS DURATION NUMBER_OF_FRAMES NUMBER_OF_BYTES
Видео
Идентификатор : 1
Формат : AVC
Формат/Информация : Advanced Video Codec
Профиль формата : High@L4.1
Параметр CABAC формата : Да
Параметр ReFrames формата : 12 кадров
Идентификатор кодека : V_MPEG4/ISO/AVC
Продолжительность : 1 ч. 40 м.
Битрейт : 3945 Кбит/сек
Ширина : 1280 пикселей
Высота : 544 пикселя
Соотношение сторон : 2,35:1
Режим частоты кадров : Постоянный
Частота кадров : 23,976 кадра/сек
Цветовое пространство : YUV
Субдискретизация насыщенности : 4:2:0
Битовая глубина : 8 бит
Тип развёртки : Прогрессивная
Бит/(Пиксели*Кадры) : 0.236
Размер потока : 2,77 Гбайт (74%)
Библиотека кодирования : x264 core 148 r2665 a01e339
Настройки программы : cabac=1 / ref=12 / deblock=1:-3:-3 / analyse=0x3:0x133 / me=umh / subme=10 / psy=1 / psy_rd=1.00:0.00 / mixed_ref=1 / me_range=24 / chroma_me=1 / trellis=2 / 8x8dct=1 / cqm=0 / deadzone=21,11 / fast_pskip=1 / chroma_qp_offset=-2 / threads=12 / lookahead_threads=1 / sliced_threads=0 / nr=0 / decimate=1 / interlaced=0 / bluray_compat=0 / constrained_intra=0 / bframes=6 / b_pyramid=2 / b_adapt=2 / b_bias=0 / direct=3 / weightb=1 / open_gop=0 / weightp=2 / keyint=250 / keyint_min=23 / scenecut=40 / intra_refresh=0 / rc=crf / mbtree=0 / crf=15.8 / qcomp=0.60 / qpmin=0 / qpmax=69 / qpstep=4 / ip_ratio=1.40 / pb_ratio=1.30 / aq=2:0.90
Default : Да
Forced : Нет
DURATION : 01:40:31.776000000
NUMBER_OF_FRAMES : 144618
NUMBER_OF_BYTES : 3052076122
_STATISTICS_WRITING_APP : mkvmerge v8.3.0 ('Over the Horizon') 64bit
_STATISTICS_WRITING_DATE_UTC : 2016-02-28 11:02:46
_STATISTICS_TAGS : BPS DURATION NUMBER_OF_FRAMES NUMBER_OF_BYTES
Коэффициенты матрицы : BT.709
Аудио #1
Идентификатор : 5
Формат : AC-3
Формат/Информация : Audio Coding 3
Расширение режима : CM (complete main)
Параметр Endianness формата : Big
Идентификатор кодека : A_AC3
Продолжительность : 1 ч. 40 м.
Вид битрейта : Постоянный
Битрейт : 640 Кбит/сек
Каналы : 6 каналов
Расположение каналов : Front: L C R, Side: L R, LFE
Частота : 48,0 КГц
Битовая глубина : 16 бит
Метод сжатия : С потерями
Размер потока : 460 Мбайт (12%)
Язык : Russian
Default : Да
Forced : Нет
Аудио #2
Идентификатор : 6
Формат : AC-3
Формат/Информация : Audio Coding 3
Расширение режима : CM (complete main)
Параметр Endianness формата : Big
Идентификатор кодека : A_AC3
Продолжительность : 1 ч. 40 м.
Вид битрейта : Постоянный
Битрейт : 640 Кбит/сек
Каналы : 6 каналов
Расположение каналов : Front: L C R, Side: L R, LFE
Частота : 48,0 КГц
Битовая глубина : 16 бит
Метод сжатия : С потерями
Размер потока : 460 Мбайт (12%)
Язык : Spanish
Default : Нет
Forced : Нет
Текст #1
Идентификатор : 2
Формат : UTF-8
Идентификатор кодека : S_TEXT/UTF8
Идентификатор кодека/Информация : UTF-8 Plain Text
Язык : English
Default : Нет
Forced : Нет
Текст #2
Идентификатор : 3
Формат : UTF-8
Идентификатор кодека : S_TEXT/UTF8
Идентификатор кодека/Информация : UTF-8 Plain Text
Язык : French
Default : Нет
Forced : Нет
Текст #3
Идентификатор : 4
Формат : UTF-8
Идентификатор кодека : S_TEXT/UTF8
Идентификатор кодека/Информация : UTF-8 Plain Text
Язык : Spanish
Default : Нет
Forced : Нет
Меню
00:00:00.000 : en:Chapter 1
00:04:22.095 : en:Chapter 2
00:17:33.761 : en:Chapter 3
00:24:22.044 : en:Chapter 4
00:32:09.427 : en:Chapter 5
00:41:08.007 : en:Chapter 6
00:50:37.284 : en:Chapter 7
01:01:24.514 : en:Chapter 8
01:08:55.340 : en:Chapter 9
01:19:07.785 : en:Chapter 10
01:25:34.379 : en:Chapter 11
01:35:15.251 : en:Chapter 12

Скриншоты



[Профиль] [ЛС]
Кто просматривает тему:

Форум Тема Автор Размер
Фильмы (HD Rips | 720p, 1080p) Идеальные незнакомцы / Perfetti sconosciuti (2016) BDRip 1080p | L1 достали все 6.2 GB
Фильмы 2016 года Идеальные незнакомцы / Perfetti sconosciuti (2016) HDRip wolf1245 956 MB
Фильмы 2011 года Идеальный незнакомец / Perfect Stranger (Джеймс Фоули / James Foley) [2007, США, Триллер, драма, криминал, детектив, BDRip] Dub reversefile 1.46 GB
Ужасы и мистика Марк Твен - Таинственный незнакомец (2016) MP3 Swager 278 MB
Отечественные мультфильмы Незнайка в Солнечном городе / 10 серий (П. Мурашов, О. Розовская, Ю. Трофимов, Б. Ардов, Н. Шорина) [1976-1977, мультфильм, DVB] TorrentFilm 4.02 GB
Мультфильмы СССР Незнайка в Солнечном городе [01-10 из 10] (1977) DVDRip от New-Team Белочка 2.18 GB
Мультфильмы СССР Незнайка в Солнечном городе [01-10 из 10] (1977) DVDRip-AVC от New-Team Белочка 2.18 GB
Отечественные мультфильмы Незнайка на Луне (Юрий Бутырин, Андрей Игнатенко, Александр Люткевич) [1997-1999, мультфильм, VHSRip-AVC] TorrentFilm 4.54 GB
Показать сообщения:    

Текущее время: Сегодня 13:50

Часовой пояс: GMT



Вы не можете начинать темы
Вы не можете отвечать на сообщения
Вы не можете редактировать свои сообщения
Вы не можете удалять свои сообщения
Вы не можете голосовать в опросах
Вы не можете прикреплять файлы к сообщениям
Вы не можете скачивать файлы