Незнакомец с моим лицом / Stranger with My Face (Джефф Ренфро / Jeff Renfroe) [2009, Канада, триллер, драма, детектив, DVDRip] MVO + Sub Rus + Original Eng

 
Автор Сообщение

painkiller ®

Стаж: 2 года 3 месяца

Сообщений: 582



Награды: Нет

Торрент-статистика

Создавать темы 15-Авг-2014 01:09

[Цитировать]

Незнакомец с моим лицом / Stranger with My Face
Страна: Канада
Жанр: триллер, драма, детектив
Год выпуска: 2009
Продолжительность: 01:36:00
Перевод: Любительский (многоголосый закадровый)
Cубтитры: русские (zelesk)
Оригинальная аудиодорожка: английский (отдельно)
Режиссер: Джефф Ренфро / Jeff Renfroe
В ролях: Кэтрин Хикс, Алекс Джонсон, Эндрю Френсис, Эмили Хирст, Грэйс Шерман, Луиза Д’Оливера, Ни До
Описание: Потеря родственников может обернуться для психики человека серьёзными расстройствами, а когда умирает самый дорогой член семьи, то можно явно сойти с ума. Юная Лори после потери отца на новом месте жительства в загородном дом начинает видеть и слышать странные вещи. При этом ее саму постоянно видят в тех местах, где она точно быть не могла. Что это? Раздвоение личности? Помешательство? Загадка кроется в прошлом девушки. Чтобы разобраться во всех странностях, Лори нужна поддержка семьи и друзей, но все, как один, твердят ей: «Будь осторожна!». История поворачивается темной стороной, и девушка уже сама не рада, что не слушала предупреждения близких.
Фильм снят по мотивам одноименной книги Лойс Данкан, автора романа "Я знаю, что вы сделали прошлым летом".
Роли озвучили: Анна Завразина, Наталья Ивлева, Евгений Имамутдинов.
Сэмпл: http://multi-up.com/949262
Качество видео: DVDRip
Формат видео: AVI
Видео: XVID, 624х352, 16:9, 23.976 fps, 963 Kbps
Аудио: MP3, 48.0 KHz, 128 Kbps, 2 channels, рус.
Аудио 2: MP3, 48.0 KHz, 128 Kbps, 2 channels, eng (отдельно).
Формат субтитров: softsub (SRT)

MediaInfo

Format : AVI
Format/Info : Audio Video Interleave
File size : 698 MiB
Duration : 1h 28mn
Overall bit rate : 1 100 Kbps
Writing application : VirtualDubMod 1.5.10.2 (build 2540/release)
Writing library : VirtualDubMod build 2540/release
Video
ID : 0
Format : MPEG-4 Visual
Format profile : Advanced Simple@L5
Format settings, BVOP : 2
Format settings, QPel : No
Format settings, GMC : No warppoints
Format settings, Matrix : Default (H.263)
Muxing mode : Packed bitstream
Codec ID : XVID
Codec ID/Hint : XviD
Duration : 1h 28mn
Bit rate : 963 Kbps
Width : 624 pixels
Height : 352 pixels
Display aspect ratio : 16:9
Frame rate : 23.976 fps
Color space : YUV
Chroma subsampling : 4:2:0
Bit depth : 8 bits
Scan type : Progressive
Compression mode : Lossy
Bits/(Pixel*Frame) : 0.183
Stream size : 611 MiB (88%)
Writing library : XviD 1.2.1 (UTC 2008-12-04)
Audio
ID : 1
Format : MPEG Audio
Format version : Version 1
Format profile : Layer 3
Mode : Joint stereo
Mode extension : MS Stereo
Codec ID : 55
Codec ID/Hint : MP3
Duration : 1h 28mn
Bit rate mode : Constant
Bit rate : 128 Kbps
Channel(s) : 2 channels
Sampling rate : 48.0 KHz
Compression mode : Lossy
Stream size : 81.2 MiB (12%)
Alignment : Aligned on interleaves
Interleave, duration : 42 ms (1.00 video frame)
Interleave, preload duration : 504 ms

Скриншот c названием фильма

Скриншоты

Дополнительная информация:
IMDB
Кинопоиск
[Профиль] [ЛС]

Создавать темы 06-Авг-2015 23:11 (спустя 11 месяцев 22 дня)

Топик был перенесен из форума Фильмы до 2014 года в форум Фильмы до 2012 года
sergej644
 

Создавать темы 12-Июн-2016 08:48 (спустя 1 год 9 месяцев)

Топик был перенесен из форума Фильмы 2011 года в форум Фильмы 2009 года
Russian Mafia
 
Кто просматривает тему:

Форум Тема Автор Размер
Фильмы (HD Rips | 720p, 1080p) Идеальные незнакомцы / Perfetti sconosciuti (2016) BDRip 1080p | L1 достали все 6.2 GB
Фильмы 2016 года Идеальные незнакомцы / Perfetti sconosciuti (2016) HDRip wolf1245 956 MB
Фильмы 2011 года Идеальный незнакомец / Perfect Stranger (Джеймс Фоули / James Foley) [2007, США, Триллер, драма, криминал, детектив, BDRip] Dub reversefile 1.46 GB
Ужасы и мистика Марк Твен - Таинственный незнакомец (2016) MP3 Swager 278 MB
Отечественные мультфильмы Незнайка в Солнечном городе / 10 серий (П. Мурашов, О. Розовская, Ю. Трофимов, Б. Ардов, Н. Шорина) [1976-1977, мультфильм, DVB] TorrentFilm 4.02 GB
Мультфильмы СССР Незнайка в Солнечном городе [01-10 из 10] (1977) DVDRip от New-Team Белочка 2.18 GB
Мультфильмы СССР Незнайка в Солнечном городе [01-10 из 10] (1977) DVDRip-AVC от New-Team Белочка 2.18 GB
Отечественные мультфильмы Незнайка на Луне (Юрий Бутырин, Андрей Игнатенко, Александр Люткевич) [1997-1999, мультфильм, VHSRip-AVC] TorrentFilm 4.54 GB
Показать сообщения:    

Текущее время: Сегодня 13:04

Часовой пояс: GMT



Вы не можете начинать темы
Вы не можете отвечать на сообщения
Вы не можете редактировать свои сообщения
Вы не можете удалять свои сообщения
Вы не можете голосовать в опросах
Вы не можете прикреплять файлы к сообщениям
Вы не можете скачивать файлы