Незнайка на Луне / 12 серий (Юрий Бутырин, Андрей Игнатенко, Александр Люткевич) [1997-1998, фантастика, приключения, DVB] Многосерийная версия

 
Автор Сообщение

TorrentFilm ®

Пол:

Стаж: 2 года

Сообщений: 7741



Награды: Нет

Торрент-статистика

Создавать темы 02-Май-2015 00:00

[Цитировать]

Незнайка на Луне / 12 серий- Страна: Россия
Жанр: фантастика, приключения
Продолжительность: 12 серий по ~14 минут
Год выпуска: 1997-1999
Русские субтитры: нет-Режиссёр: Юрий Бутырин, Андрей Игнатенко, Александр Люткевич
Роли озвучивали: Венера Рахимова, Кристина Орбакайте, Светлана Степченко, Алексей Борзунов, Клара Румянова, Александр Леньков, Артем Карапетян, Михаил Кононов, Светлана Харлап и др.-Описание: "Незнайка на Луне" - грандиозный анимационный проект с участием звездных голосов российской эстрады Кристины Орбакайте в роли Звездочки и Валерия Меладзе с песенным хитом, как лейтмотивом фильма.
В очаровательной детской фантастике с захватывающим сюжетом, юмором и добротой за развлекательным жанром кроется глубокий смысл. Наряду с приключениями ребенка ждут жизненно важные знания об экономике, физике и астрономии. Веселая и поучительная история еще раз напомнит о вечных истинах, о том, что добро всегда побеждает зло.
Это интересная и поучительная сказка не оставит никого равнодушным и доставит огромное удовольствие от просмотра.-Список серий:
1. Загадка Лунного Камня.
2. Грандиозный замысел Знайки.
3. Незнайка и Пончик летят на Луну.
4. Первый день на Луне.
5. Звёздочка.
6. Дорогие друзья.
7. Акционерное общество гигантских растений.
8. Большой бредлам.
9. Незнайка ищет работу.
10. Куда исчезла ракета.
11. Знайка спешит на помощь.
12. Дорога домой.-Доп. информация: Серии 1-9 записаны с канала "Карусель", серии 10-12 - с канала "Мульт". За серии 10-12 спасибо SLuMeP.- | Релиз: -Качество: DVB
Формат: MPG
Серии 1-9:
Видео: 720x576 (4:3), 25.000 fps, MPEG-2 Video, ~3401 Kbps, 0.328 bits/pixel
Аудио: 48.0 KHz, MPEG-1 Audio layer 2, 2 ch, 192 Kbps
Серии 10-12:
Видео: 720x576 (4:3), 25.000 fps, MPEG-2 Video, ~3037 Kbps, 0.293 bits/pixel
Аудио: 48.0 KHz, MPEG-1 Audio layer 2, 2 ch, 160 Kbps
Субтитры: отсутствуют

Подробные технические данные

GeneralComplete name : Незнайка на Луне. 1 серия. Загадка Лунного Камня.mpgFormat : MPEG-PSFile size : 370 MiBDuration : 14mn 6sOverall bit rate mode : VariableOverall bit rate : 3 666 Kbps
VideoID : 224 (0xE0)Format : MPEG VideoFormat version : Version 2Format profile : Main@MainFormat settings, BVOP : YesFormat settings, Matrix : CustomFormat settings, GOP : M=3, N=12Duration : 14mn 6sBit rate mode : VariableBit rate : 3 401 KbpsMaximum bit rate : 5 000 KbpsWidth : 720 pixelsHeight : 576 pixelsDisplay aspect ratio : 4:3Frame rate : 25.000 fpsStandard : PALColor space : YUVChroma subsampling : 4:2:0Bit depth : 8 bitsScan type : InterlacedScan order : Top Field FirstCompression mode : LossyBits/(Pixel*Frame) : 0.328Time code of first frame : 00:00:00:00Time code source : Group of pictures headerStream size : 343 MiB (93%)
AudioID : 192 (0xC0)Format : MPEG AudioFormat version : Version 1Format profile : Layer 2Duration : 14mn 6sBit rate mode : ConstantBit rate : 192 KbpsChannel(s) : 2 channelsSampling rate : 48.0 KHzCompression mode : LossyStream size : 19.4 MiB (5%)-GeneralComplete name : Незнайка на Луне. 10 серия. Куда исчезла ракета.mpgFormat : MPEG-PSFile size : 322 MiBDuration : 13mn 49sOverall bit rate mode : VariableOverall bit rate : 3 262 Kbps
VideoID : 224 (0xE0)Format : MPEG VideoFormat version : Version 2Format profile : Main@MainFormat settings, BVOP : YesFormat settings, Matrix : CustomFormat settings, GOP : M=3, N=12Format settings, picture structure : FrameDuration : 13mn 49sBit rate mode : VariableBit rate : 3 037 KbpsMaximum bit rate : 15.0 MbpsWidth : 720 pixelsHeight : 576 pixelsDisplay aspect ratio : 4:3Frame rate : 25.000 fpsStandard : PALColor space : YUVChroma subsampling : 4:2:0Bit depth : 8 bitsScan type : InterlacedScan order : Top Field FirstCompression mode : LossyBits/(Pixel*Frame) : 0.293Time code of first frame : 00:00:00:00Time code source : Group of pictures headerGOP, Open/Closed : OpenGOP, Open/Closed of first frame : ClosedStream size : 300 MiB (93%)
AudioID : 192 (0xC0)Format : MPEG AudioFormat version : Version 1Format profile : Layer 2Duration : 13mn 49sBit rate mode : ConstantBit rate : 160 KbpsChannel(s) : 2 channelsSampling rate : 48.0 KHzCompression mode : LossyStream size : 15.8 MiB (5%)
1 мая 2015 г. торрент перезалит.
В раздачу добавлены серии 10, 11, 12.
[Профиль] [ЛС]
Кто просматривает тему:

Форум Тема Автор Размер
Фильмы (HD Rips | 720p, 1080p) Идеальные незнакомцы / Perfetti sconosciuti (2016) BDRip 1080p | L1 достали все 6.2 GB
Фильмы 2016 года Идеальные незнакомцы / Perfetti sconosciuti (2016) HDRip wolf1245 956 MB
Фильмы 2011 года Идеальный незнакомец / Perfect Stranger (Джеймс Фоули / James Foley) [2007, США, Триллер, драма, криминал, детектив, BDRip] Dub reversefile 1.46 GB
Ужасы и мистика Марк Твен - Таинственный незнакомец (2016) MP3 Swager 278 MB
Отечественные мультфильмы Незнайка в Солнечном городе / 10 серий (П. Мурашов, О. Розовская, Ю. Трофимов, Б. Ардов, Н. Шорина) [1976-1977, мультфильм, DVB] TorrentFilm 4.02 GB
Мультфильмы СССР Незнайка в Солнечном городе [01-10 из 10] (1977) DVDRip от New-Team Белочка 2.18 GB
Мультфильмы СССР Незнайка в Солнечном городе [01-10 из 10] (1977) DVDRip-AVC от New-Team Белочка 2.18 GB
Отечественные мультфильмы Незнайка на Луне (Юрий Бутырин, Андрей Игнатенко, Александр Люткевич) [1997-1999, мультфильм, VHSRip-AVC] TorrentFilm 4.54 GB
Показать сообщения:    

Текущее время: Сегодня 00:35

Часовой пояс: GMT



Вы не можете начинать темы
Вы не можете отвечать на сообщения
Вы не можете редактировать свои сообщения
Вы не можете удалять свои сообщения
Вы не можете голосовать в опросах
Вы не можете прикреплять файлы к сообщениям
Вы не можете скачивать файлы