Незнайка в Солнечном городе / 10 серий (П. Мурашов, О. Розовская, Ю. Трофимов, Б. Ардов, Н. Шорина) [1976-1977, мультфильм, DVB]

 
Автор Сообщение

TorrentFilm ®

Пол:

Стаж: 2 года

Сообщений: 7741



Награды: Нет

Торрент-статистика

Создавать темы 18-Май-2015 00:04

[Цитировать]

Незнайка в Солнечном городе
Год выпуска: 1976-1977
Страна: СCCР
Жанр: кукольный мультфильм
Продолжительность: 02:56:36
Русские субтитры: нет
Режиссёр: П. Мурашов, Ольга Розовская, Юрий Трофимов, Борис Ардов, Нина Шорина
Описание: мультфильм о том, как в цветочном городе живут малыши и малышки, добрые и веселые человечки, самым озорным из которых является Незнайка. Однажды от подруги Кнопочки Незнайка узнает, что, совершив подряд три добрых поступка, можно получить от волшебника волшебную палочку. Незнайка начинает помогать своим друзьям, и действительно, вскоре появляется волшебник и заслуженно дарит Незнайке палочку, но предупреждает, что она потеряет свою силу, если мальчик совершит три скверных поступка.
И вот, Незнайка с друзьями, Кнопочкой и Пестреньким, отправляются в Солнечный город, где их ожидают необыкновенные приключения ...
1. "Как Незнайка совершал хорошие поступки. 1 серия" 1976г
2. "Встреча с Волшебником. 2 серия" 1976г.
3. "Превращения начинаются. 3 серия" 1976г.
4. "Побег. 4 серия" 1976г.
5. "Превращения продолжаются. 5 серия" 1976г
6. "Приключения трех ослов. 6 серия" 1976г.
7. "Удивительные подвиги. 7 серия" 1976г.
8. "Снова вместе . 8 серия" 1976г.
9. "Переполох в зоопарке. 9 серия" 1977г.
10. "Волшебник появляется снова. 10 серия" 1977г.
Доп. информация: по мотивам романа-сказки Николая Носова «Незнайка в Солнечном городе»

Релиз группы:
Трансляция спутникового канала:

Качество видео: DVB
Формат видео: MPEG-PS
Видео: MPEG2 Video, 720x576 (4:3), 25 fps, 3000 kbps
Аудио: MPEG Audiо, 2 сh, 48 kHz, 160 kbps

MediaInfo

General
Complete name : D:\Незнайка в Солнечном городе\01. Как Незнайка совершал хорошие поступки. (1976)_DVB by SLuMeP.mpg
Format : MPEG-PS
File size : 363 MiB
Duration : 15mn 33s
Overall bit rate mode : Variable
Overall bit rate : 3 262 Kbps
Video
ID : 224 (0xE0)
Format : MPEG Video
Format version : Version 2
Format profile : Main@Main
Format settings, BVOP : Yes
Format settings, Matrix : Custom
Format settings, GOP : M=3, N=12
Format settings, picture st : Frame
Duration : 15mn 33s
Bit rate mode : Variable
Bit rate : 3 037 Kbps
Maximum bit rate : 15.0 Mbps
Width : 720 pixels
Height : 576 pixels
Display aspect ratio : 4:3
Frame rate : 25.000 fps
Standard : PAL
Color space : YUV
Chroma subsampling : 4:2:0
Bit depth : 8 bits
Scan type : Interlaced
Scan order : Top Field First
Compression mode : Lossy
Bits/(Pixel*Frame) : 0.293
Time code of first frame : 00:00:00:00
Time code source : Group of pictures header
GOP, Open/Closed : Open
Stream size : 338 MiB (93%)
GOP, Open/Closed of first f : Closed
Audio
ID : 192 (0xC0)
Format : MPEG Audio
Format version : Version 1
Format profile : Layer 2
Duration : 15mn 33s
Bit rate mode : Constant
Bit rate : 160 Kbps
Channel(s) : 2 channels
Sampling rate : 48.0 KHz
Compression mode : Lossy
Stream size : 17.8 MiB (5%)

Скриншоты


[Профиль] [ЛС]
Кто просматривает тему:

Форум Тема Автор Размер
Фильмы (HD Rips | 720p, 1080p) Идеальные незнакомцы / Perfetti sconosciuti (2016) BDRip 1080p | L1 достали все 6.2 GB
Фильмы 2016 года Идеальные незнакомцы / Perfetti sconosciuti (2016) HDRip wolf1245 956 MB
Фильмы 2011 года Идеальный незнакомец / Perfect Stranger (Джеймс Фоули / James Foley) [2007, США, Триллер, драма, криминал, детектив, BDRip] Dub reversefile 1.46 GB
Ужасы и мистика Марк Твен - Таинственный незнакомец (2016) MP3 Swager 278 MB
Мультфильмы СССР Незнайка в Солнечном городе [01-10 из 10] (1977) DVDRip от New-Team Белочка 2.18 GB
Мультфильмы СССР Незнайка в Солнечном городе [01-10 из 10] (1977) DVDRip-AVC от New-Team Белочка 2.18 GB
Отечественные мультфильмы Незнайка на Луне (Юрий Бутырин, Андрей Игнатенко, Александр Люткевич) [1997-1999, мультфильм, VHSRip-AVC] TorrentFilm 4.54 GB
Отечественные мультфильмы Незнайка на Луне / 12 серий (Юрий Бутырин, Андрей Игнатенко, Александр Люткевич) [1997-1998, фантастика, приключения, DVB] Многосерийная версия TorrentFilm 4.04 GB
Показать сообщения:    

Текущее время: Сегодня 12:15

Часовой пояс: GMT



Вы не можете начинать темы
Вы не можете отвечать на сообщения
Вы не можете редактировать свои сообщения
Вы не можете удалять свои сообщения
Вы не можете голосовать в опросах
Вы не можете прикреплять файлы к сообщениям
Вы не можете скачивать файлы