Незнайка в Солнечном городе [01-10 из 10] (1977) DVDRip от New-Team

 
Автор Сообщение

Белочка ®

Пол:

Стаж: 5 лет 1 месяц

Сообщений: 2089



Награды: 1 (Подробнее)

Girls (Количество: 1)
Торрент-статистика

Создавать темы 25-Окт-2014 22:22

[Цитировать]

Страна: СССР
Жанр: мультфильм, семейный
Год выпуска: 1977
Продолжительность: 02:56:16 (серия ~ 00:17:30 минут)
Перевод: не требуется
Оригинальная аудиодорожка: русский
Cубтитры: нет
Режиссер: Феликс Герчиков
Ролях озвучивали:
Валентин Никулин (Волшебник), Вячеслав Невинный (Свистулькин),Клара Румянова, Лия Ахеджакова, Маргарита Корабельникова, Т. Дмитриева, Наталья Голубенцева, Светлана Харлап, Бронислава Захарова, Георгий Милляр, Семен Самодур...
Описание:
Незнайка совершил подряд три добрых дела, и за это волшебник подарил ему волшебную палочку. Но предупредил, что палочка потеряет свою силу, если мальчик совершит три скверных поступка.
И вот, Незнайка с друзьями, Кнопочкой и Пестреньким, отправляются в Солнечный город, где их ожидают необыкновенные приключения...- -Исходник: DVD9 R5
Тип релиза: DVDRip
Контейнер: AVI
Видео: 688x384 (4:3), 25 fps, XviD ~ 1635 kbps avg, 0.186 bit/pixel
Аудио: 48 kHz, Dolby AC3 2.0, 192 kbps

MediaInfo

Общее
Полное имя : Neznajka.v.Solnechnom.gorode.1977.DVDRip_[Youtracker]_by_AVP Studio.avi
Формат : AVI
Формат/Информация : Audio Video Interleave
Размер файла : 205 Мбайт
Продолжительность : 15 м.
Общий поток : 1837 Кбит/сек
Программа кодирования : VirtualDubMod 1.5.10.3 | www.virtualdub-fr.org || (build 2550/release)
Библиотека кодирования : VirtualDubMod build 2550/release
Видео
Идентификатор : 0
Формат : MPEG-4 Visual
Профиль формата : Advanced Simple@L5
Параметр BVOP формата : 1
Параметр QPel формата : Нет
Параметр GMC формата : Без точки перехода
Параметр матрицы формата : Выборочная
Идентификатор кодека : XVID
Идентификатор кодека/Подсказка : XviD
Продолжительность : 15 м.
Битрейт : 1635 Кбит/сек
Ширина : 688 пикселей
Высота : 512 пикселей
Соотношение сторон : 4:3
Частота кадров : 25,000 кадров/сек
Цветовое пространство : YUV
Субдискретизация насыщенности : 4:2:0
Битовая глубина : 8 бит
Тип развёртки : Прогрессивная
Метод сжатия : С потерями
Бит/(Пиксели*Кадры) : 0.186
Размер потока : 183 Мбайт (89%)
Библиотека кодирования : XviD 65
Аудио
Идентификатор : 1
Формат : AC-3
Формат/Информация : Audio Coding 3
Расширение режима : CM (complete main)
Идентификатор кодека : 2000
Продолжительность : 15 м.
Вид битрейта : Постоянный
Битрейт : 192 Кбит/сек
Каналы : 2 канала
Расположение каналов : Front: L R
Частота : 48,0 КГц
Битовая глубина : 16 бит
Метод сжатия : С потерями
Размер потока : 21,4 Мбайт (10%)
Выравнивание : Разделение по промежуткам
Продолжительность промежутка : 40 мс. (1,00 видеокадр)
Время предзагрузки промежутка : 500 мс.

Список серий

01 Как Незнайка совершал хорошие поступки (1976)
02 Встреча с Волшебником (1976)
03 Превращения начинаются (1976)
04 Побег (1976)
05 Превращения продолжаются (1976)
06 Приключения трех ослов (1976)
07 Удивительные подвиги (1976)
08 Снова вместе (1976)
09 Переполох в зоопарке (1977)
10 Волшебник появляется снова (1977)

Скриншоты

[Профиль] [ЛС]
Кто просматривает тему:

Форум Тема Автор Размер
Фильмы (HD Rips | 720p, 1080p) Идеальные незнакомцы / Perfetti sconosciuti (2016) BDRip 1080p | L1 достали все 6.2 GB
Фильмы 2016 года Идеальные незнакомцы / Perfetti sconosciuti (2016) HDRip wolf1245 956 MB
Фильмы 2011 года Идеальный незнакомец / Perfect Stranger (Джеймс Фоули / James Foley) [2007, США, Триллер, драма, криминал, детектив, BDRip] Dub reversefile 1.46 GB
Ужасы и мистика Марк Твен - Таинственный незнакомец (2016) MP3 Swager 278 MB
Отечественные мультфильмы Незнайка в Солнечном городе / 10 серий (П. Мурашов, О. Розовская, Ю. Трофимов, Б. Ардов, Н. Шорина) [1976-1977, мультфильм, DVB] TorrentFilm 4.02 GB
Мультфильмы СССР Незнайка в Солнечном городе [01-10 из 10] (1977) DVDRip-AVC от New-Team Белочка 2.18 GB
Отечественные мультфильмы Незнайка на Луне (Юрий Бутырин, Андрей Игнатенко, Александр Люткевич) [1997-1999, мультфильм, VHSRip-AVC] TorrentFilm 4.54 GB
Отечественные мультфильмы Незнайка на Луне / 12 серий (Юрий Бутырин, Андрей Игнатенко, Александр Люткевич) [1997-1998, фантастика, приключения, DVB] Многосерийная версия TorrentFilm 4.04 GB
Показать сообщения:    

Текущее время: Сегодня 20:01

Часовой пояс: GMT



Вы не можете начинать темы
Вы не можете отвечать на сообщения
Вы не можете редактировать свои сообщения
Вы не можете удалять свои сообщения
Вы не можете голосовать в опросах
Вы не можете прикреплять файлы к сообщениям
Вы не можете скачивать файлы