Незнайка в Солнечном городе [01-10 из 10] (1977) DVDRip-AVC от New-Team

 
Автор Сообщение

Белочка ®

Пол:

Стаж: 5 лет 1 месяц

Сообщений: 2089



Награды: 1 (Подробнее)

Girls (Количество: 1)
Торрент-статистика

Создавать темы 25-Окт-2014 22:21

[Цитировать]

Страна: СССР
Жанр: мультфильм, семейный
Год выпуска: 1977
Продолжительность: 02:56:16 (серия ~ 00:17:30 минут)
Перевод: не требуется
Оригинальная аудиодорожка: русский
Cубтитры: нет
Режиссер: Феликс Герчиков
Ролях озвучивали:
Валентин Никулин (Волшебник), Вячеслав Невинный (Свистулькин),Клара Румянова, Лия Ахеджакова, Маргарита Корабельникова, Т. Дмитриева, Наталья Голубенцева, Светлана Харлап, Бронислава Захарова, Георгий Милляр, Семен Самодур...
Описание:
Незнайка совершил подряд три добрых дела, и за это волшебник подарил ему волшебную палочку. Но предупредил, что палочка потеряет свою силу, если мальчик совершит три скверных поступка.
И вот, Незнайка с друзьями, Кнопочкой и Пестреньким, отправляются в Солнечный город, где их ожидают необыкновенные приключения...- -Исходник: DVD9 R5
Тип релиза: DVDRip-AVC
Контейнер: MKV
Видео: 696x564 (4:3), 25 fps, H264 ~ 1653 kbps avg, 0.168 bit/pixel
Аудио: 48 kHz, Dolby AC3 2.0, 192 kbps

MediaInfo

Общее
Полное имя : Neznajka.v.Solnechnom.gorode.1977.DVDRip-AVC_[Youtracker]_by_AVP Studio.mkv
Формат : Matroska
Версия формата : Version 2
Размер файла : 238 Мбайт
Продолжительность : 18 м.
Общий поток : 1847 Кбит/сек
Дата кодирования : UTC 2013-02-12 20:21:10
Программа кодирования : mkvmerge v5.0.1 ('Es ist Sommer') built on Nov 6 2011 16:23:40
Библиотека кодирования : libebml v1.2.2 + libmatroska v1.3.0
Видео
Идентификатор : 1
Формат : AVC
Формат/Информация : Advanced Video Codec
Профиль формата : High@L4.1
Параметр CABAC формата : Да
Параметр ReFrames формата : 11 кадров
Идентификатор кодека : V_MPEG4/ISO/AVC
Продолжительность : 18 м.
Битрейт : 1653 Кбит/сек
Ширина : 696 пикселей
Высота : 564 пикселя
Соотношение сторон : 4:3
Частота кадров : 25,000 кадров/сек
Цветовое пространство : YUV
Субдискретизация насыщенности : 4:2:0
Битовая глубина : 8 бит
Тип развёртки : Прогрессивная
Бит/(Пиксели*Кадры) : 0.168
Размер потока : 209 Мбайт (88%)
Библиотека кодирования : x264 core 119 r2106 07efeb4
Настройки программы : cabac=1 / ref=11 / deblock=1:-2:-1 / analyse=0x3:0x113 / me=umh / subme=9 / psy=1 / psy_rd=1.00:0.20 / mixed_ref=1 / me_range=32 / chroma_me=1 / trellis=1 / 8x8dct=1 / cqm=0 / deadzone=21,11 / fast_pskip=0 / chroma_qp_offset=-3 / threads=3 / sliced_threads=0 / nr=0 / decimate=0 / interlaced=0 / bluray_compat=0 / constrained_intra=0 / bframes=8 / b_pyramid=2 / b_adapt=2 / b_bias=0 / direct=3 / weightb=1 / open_gop=0 / weightp=2 / keyint=250 / keyint_min=25 / scenecut=40 / intra_refresh=0 / rc_lookahead=60 / rc=2pass / mbtree=1 / bitrate=1653 / ratetol=1.0 / qcomp=0.60 / qpmin=0 / qpmax=69 / qpstep=4 / cplxblur=20.0 / qblur=0.5 / ip_ratio=1.40 / aq=1:1.00
Default : Да
Forced : Нет
Аудио
Идентификатор : 2
Формат : AC-3
Формат/Информация : Audio Coding 3
Расширение режима : CM (complete main)
Идентификатор кодека : A_AC3
Продолжительность : 18 м.
Вид битрейта : Постоянный
Битрейт : 192 Кбит/сек
Каналы : 2 канала
Расположение каналов : Front: L R
Частота : 48,0 КГц
Битовая глубина : 16 бит
Метод сжатия : С потерями
Размер потока : 24,8 Мбайт (10%)
Default : Да
Forced : Нет

Список серий

01 Как Незнайка совершал хорошие поступки (1976)
02 Встреча с Волшебником (1976)
03 Превращения начинаются (1976)
04 Побег (1976)
05 Превращения продолжаются (1976)
06 Приключения трех ослов (1976)
07 Удивительные подвиги (1976)
08 Снова вместе (1976)
09 Переполох в зоопарке (1977)
10 Волшебник появляется снова (1977)

Скриншоты

[Профиль] [ЛС]
Кто просматривает тему:

Форум Тема Автор Размер
Фильмы (HD Rips | 720p, 1080p) Идеальные незнакомцы / Perfetti sconosciuti (2016) BDRip 1080p | L1 достали все 6.2 GB
Фильмы 2016 года Идеальные незнакомцы / Perfetti sconosciuti (2016) HDRip wolf1245 956 MB
Фильмы 2011 года Идеальный незнакомец / Perfect Stranger (Джеймс Фоули / James Foley) [2007, США, Триллер, драма, криминал, детектив, BDRip] Dub reversefile 1.46 GB
Ужасы и мистика Марк Твен - Таинственный незнакомец (2016) MP3 Swager 278 MB
Отечественные мультфильмы Незнайка в Солнечном городе / 10 серий (П. Мурашов, О. Розовская, Ю. Трофимов, Б. Ардов, Н. Шорина) [1976-1977, мультфильм, DVB] TorrentFilm 4.02 GB
Мультфильмы СССР Незнайка в Солнечном городе [01-10 из 10] (1977) DVDRip от New-Team Белочка 2.18 GB
Отечественные мультфильмы Незнайка на Луне (Юрий Бутырин, Андрей Игнатенко, Александр Люткевич) [1997-1999, мультфильм, VHSRip-AVC] TorrentFilm 4.54 GB
Отечественные мультфильмы Незнайка на Луне / 12 серий (Юрий Бутырин, Андрей Игнатенко, Александр Люткевич) [1997-1998, фантастика, приключения, DVB] Многосерийная версия TorrentFilm 4.04 GB
Показать сообщения:    

Текущее время: Сегодня 18:31

Часовой пояс: GMT



Вы не можете начинать темы
Вы не можете отвечать на сообщения
Вы не можете редактировать свои сообщения
Вы не можете удалять свои сообщения
Вы не можете голосовать в опросах
Вы не можете прикреплять файлы к сообщениям
Вы не можете скачивать файлы