Незваные гости / Shut In (2015) BDRemux 1080p от ExKinoRay | iTunes

 
Автор Сообщение

Russian Mafia ®

Пол:

Стаж: 1 год 8 месяцев

Сообщений: 4256



Награды: 10 (Подробнее)

Mega Seeder 1 (Количество: 1) За внесенный вклад в развитие сайта (Количество: 1) Top Releaser 3 (Количество: 1)
Торрент-статистика

Создавать темы 16-Июл-2016 05:43

[Цитировать]

Информация о фильме
Название: Незваные гости
Оригинальное название: Shut In
Год выхода: 2015
Жанр: Ужасы, триллер, драма
Режиссер: Адам Шиндлер
В ролях: Рори Калкин, Летисия Хименез, Джек Кеси, Тимоти Т. МакКинни, Джошуа Микель, Бэт Рисграф, Мартин Старр
О фильме:
Анна страдает от агорафобии, поэтому, когда трое преступников врываются в ее дом, она не может заставить себя выбежать на улицу. Злоумышленники пока не знают, что боязнь открытого пространства — не единственное расстройство психики девушки.

Страна: США
Студия: Black Fish Films, Campbell Grobman Films, Jeff Rice Films, Vicarious Entertainment
Продолжительность: 01:30:19
Перевод: Дублированный | iTunes
Файл
Кодек: MPEG-4
Качество: BDRemux 1080p
Видео: 1920x1080, 27.9 Mbit/s, 24.000 fps
Звук:
Аудио #01: 48 kHz, AC3, 5.1, 384 Kbps | Дублированный, iTunes |
Аудио #02: 48 kHz, DTS-HD MA, 5.1, 1772 kbps | Оригинал |

MI

General
Unique ID : 176943573065884167922764219818933472366 (0x851E17B38C7779A2BE7DDB2B8A5FCC6E)
Complete name : F:VideoShut.In.2015.D.BDREMUX.1080p.ExKinoRay.mkv
Format : Matroska
Format version : Version 4 / Version 2
File size : 19.0 GiB
Duration : 1h 30mn
Overall bit rate : 30.1 Mbps
Movie name : Shut.In.2015.D.BDREMUX.1080p.ExKinoRay
Encoded date : UTC 2016-07-16 00:55:53
Writing application : mkvmerge v8.3.0 ('Over the Horizon') 64bit
Writing library : libebml v1.3.1 + libmatroska v1.4.2
Video
ID : 1
Format : AVC
Format/Info : Advanced Video Codec
Format profile : High@L4.1
Format settings, CABAC : Yes
Format settings, ReFrames : 4 frames
Codec ID : V_MPEG4/ISO/AVC
Duration : 1h 30mn
Bit rate mode : Constant
Bit rate : 27.9 Mbps
Nominal bit rate : 33.0 Mbps
Width : 1 920 pixels
Height : 1 080 pixels
Display aspect ratio : 16:9
Frame rate mode : Constant
Frame rate : 24.000 fps
Standard : NTSC
Color space : YUV
Chroma subsampling : 4:2:0
Bit depth : 8 bits
Scan type : Progressive
Bits/(Pixel*Frame) : 0.561
Stream size : 17.6 GiB (93%)
Language : English
Default : Yes
Forced : No
Color range : Limited
Color primaries : BT.709
Transfer characteristics : BT.709
Matrix coefficients : BT.709
Audio #1
ID : 2
Format : AC-3
Format/Info : Audio Coding 3
Mode extension : CM (complete main)
Format settings, Endianness : Big
Codec ID : A_AC3
Duration : 1h 29mn
Bit rate mode : Constant
Bit rate : 384 Kbps
Channel(s) : 6 channels
Channel positions : Front: L C R, Side: L R, LFE
Sampling rate : 48.0 KHz
Frame rate : 31.250 fps (1536 spf)
Compression mode : Lossy
Stream size : 247 MiB (1%)
Title : iTunes
Language : Russian
Default : Yes
Forced : No
Audio #2
ID : 3
Format : DTS
Format/Info : Digital Theater Systems
Format profile : MA / Core
Mode : 16
Format settings, Endianness : Big
Codec ID : A_DTS
Duration : 1h 30mn
Bit rate mode : Variable / Constant
Bit rate : 1 772 Kbps / 1 509 Kbps
Channel(s) : 6 channels
Channel positions : Front: L C R, Side: L R, LFE
Sampling rate : 48.0 KHz
Frame rate : 93.750 fps (512 spf)
Bit depth : 16 bits
Compression mode : Lossless / Lossy
Stream size : 1.12 GiB (6%)
Title : Original
Language : English
Default : No
Forced : No
Menu
00:00:00.000 : en:Chapter 1
00:10:41.266 : en:Chapter 2
00:15:32.265 : en:Chapter 3
00:23:45.340 : en:Chapter 4
00:30:56.563 : en:Chapter 5
00:36:01.367 : en:Chapter 6
00:45:36.317 : en:Chapter 7
00:48:48.509 : en:Chapter 8
00:54:51.455 : en:Chapter 9
01:01:46.244 : en:Chapter 10
01:08:32.608 : en:Chapter 11
01:16:11.609 : en:Chapter 12
01:22:20.143 : en:Chapter 13
01:29:52.011 : en:Chapter 14
01:36:46.092 : en:Chapter 15
01:42:08.497 : en:Chapter 16

Скриншоты

Релиз от: Автор релиза:
[Профиль] [ЛС]
Показать сообщения:    

Текущее время: Сегодня 00:34

Часовой пояс: GMT



Вы не можете начинать темы
Вы не можете отвечать на сообщения
Вы не можете редактировать свои сообщения
Вы не можете удалять свои сообщения
Вы не можете голосовать в опросах
Вы не можете прикреплять файлы к сообщениям
Вы не можете скачивать файлы