Незваные гости / Shut In (2015) BDRemux 1080i от ExKinoRay | Rus Transfer | iTunes

 
Автор Сообщение

Russian Mafia ®

Пол:

Стаж: 1 год 8 месяцев

Сообщений: 4253



Награды: 10 (Подробнее)

Mega Seeder 3 (Количество: 1) Top Releaser 5 (Количество: 1) Mega Seeder 4 (Количество: 1)
Торрент-статистика

Создавать темы 16-Июл-2016 05:41

[Цитировать]

Информация о фильме
Название: Незваные гости
Оригинальное название: Shut In
Год выхода: 2015
Жанр: Ужасы, триллер, драма
Режиссер: Адам Шиндлер
В ролях: Рори Калкин, Летисия Хименез, Джек Кеси, Тимоти Т. МакКинни, Джошуа Микель, Бэт Рисграф, Мартин Старр
О фильме:
Анна страдает от агорафобии, поэтому, когда трое преступников врываются в ее дом, она не может заставить себя выбежать на улицу. Злоумышленники пока не знают, что боязнь открытого пространства — не единственное расстройство психики девушки.

Страна: США
Студия: Black Fish Films, Campbell Grobman Films, Jeff Rice Films, Vicarious Entertainment
Продолжительность: 01:26:22
Перевод: Дублированный | iTunes
Файл
Кодек: MPEG-4
Качество: BDRemux 1080i
Видео: 1920x1080, 19.8 Mbit/s, 25.000 fps
Звук:
Аудио #1: 48.0 Khz, AC3, 5.1, 384 Kbps | Дублированный, iTunes | RUS
Аудио #2: 48.0 Khz, DTS-HD MA, 5.1, 3575 Kbps | Оригинал | ENG

MI

General
Unique ID : 184209554456911555346528463845296436026 (0x8A95783E115C68D9B2D85790D08FF33A)
Complete name : F:VideoНовая папка (2)Shut.In.2015.D.BDREMUX.1080i.ExKinoRay.mkv
Format : Matroska
Format version : Version 4 / Version 2
File size : 14.3 GiB
Duration : 1h 26mn
Overall bit rate mode : Variable
Overall bit rate : 23.8 Mbps
Movie name : Shut.In.2015.D.BDREMUX.1080i.ExKinoRay
Encoded date : UTC 2016-07-16 02:07:30
Writing application : mkvmerge v8.3.0 ('Over the Horizon') 64bit
Writing library : libebml v1.3.1 + libmatroska v1.4.2
Video
ID : 1
Format : AVC
Format/Info : Advanced Video Codec
Format profile : High@L4.1
Format settings, CABAC : Yes
Format settings, ReFrames : 4 frames
Format settings, picture st : Frame
Codec ID : V_MPEG4/ISO/AVC
Duration : 1h 26mn
Bit rate mode : Variable
Bit rate : 19.8 Mbps
Maximum bit rate : 29.0 Mbps
Width : 1 920 pixels
Height : 1 080 pixels
Display aspect ratio : 16:9
Frame rate mode : Constant
Frame rate : 25.000 fps
Color space : YUV
Chroma subsampling : 4:2:0
Bit depth : 8 bits
Scan type : Interlaced
Scan type, store method : Interleaved fields
Scan order : Top Field First
Bits/(Pixel*Frame) : 0.382
Stream size : 12.0 GiB (83%)
Language : English
Default : Yes
Forced : No
Audio #1
ID : 2
Format : AC-3
Format/Info : Audio Coding 3
Mode extension : CM (complete main)
Format settings, Endianness : Big
Codec ID : A_AC3
Duration : 1h 26mn
Bit rate mode : Constant
Bit rate : 384 Kbps
Channel(s) : 6 channels
Channel positions : Front: L C R, Side: L R, LFE
Sampling rate : 48.0 KHz
Frame rate : 31.250 fps (1536 spf)
Compression mode : Lossy
Delay relative to video : 28ms
Stream size : 236 MiB (2%)
Title : iTunes
Language : Russian
Default : Yes
Forced : No
Audio #2
ID : 3
Format : DTS
Format/Info : Digital Theater Systems
Format profile : MA / Core
Mode : 16
Format settings, Endianness : Big
Codec ID : A_DTS
Duration : 1h 26mn
Bit rate mode : Variable / Constant
Bit rate : 3 575 Kbps / 1 509 Kbps
Channel(s) : 6 channels
Channel positions : Front: L C R, Side: L R, LFE
Sampling rate : 48.0 KHz
Frame rate : 93.750 fps (512 spf)
Bit depth : 24 bits
Compression mode : Lossless / Lossy
Stream size : 2.16 GiB (15%)
Title : Original
Language : English
Default : No
Forced : No
Menu
00:00:00.000 : en:Chapter 01
00:08:03.520 : en:Chapter 02
00:13:00.120 : en:Chapter 03
00:20:56.080 : en:Chapter 04
00:28:13.560 : en:Chapter 05
00:34:23.160 : en:Chapter 06
00:40:06.200 : en:Chapter 07
00:49:21.640 : en:Chapter 08
00:57:02.720 : en:Chapter 09
01:04:07.400 : en:Chapter 10
01:10:33.320 : en:Chapter 11
01:15:48.080 : en:Chapter 12

Скриншоты

Релиз от: Автор релиза:
[Профиль] [ЛС]
Показать сообщения:    

Текущее время: Сегодня 21:00

Часовой пояс: GMT



Вы не можете начинать темы
Вы не можете отвечать на сообщения
Вы не можете редактировать свои сообщения
Вы не можете удалять свои сообщения
Вы не можете голосовать в опросах
Вы не можете прикреплять файлы к сообщениям
Вы не можете скачивать файлы