Незабываемое / Unforgettable (1996) HDRip от Leon-masl | P, A

 
Автор Сообщение

Russian Mafia ®

Пол:

Стаж: 1 год 8 месяцев

Сообщений: 4257



Награды: 10 (Подробнее)

Top Releaser 4 (Количество: 1) Mega Seeder 1 (Количество: 1) Top Releaser 3 (Количество: 1)
Торрент-статистика

Создавать темы 20-Мар-2016 08:26

[Цитировать]

Информация о фильме
Название: Незабываемое
Оригинальное название: Unforgettable
Год выхода: 1996
Жанр: фантастика, триллер, драма
Режиссер: Джон Дал
В ролях: Рэй Лиотта, Линда Фиорентино, Питер Койот, Кристофер МакДональд, Дэвид Пэймер, Дункан Фрайзер, Кэролайн Эллиотт, Коллин Реннисон, Ким Кэтролл, Стеллина Русиш
О фильме:
Жена судмедэксперта Дэвида Крэйна была зверски убита, а сам Дэвид в состоянии алкогольного опьянения находился рядом, где и был задержан полицией. Суд снял с Дэвида обвинение в убийстве, но лишил его права воспитывать детей.
Случайно услышав доклад нейробиолога Марты Бриггс, Дэвид принимает решение стать подопытной крысой. Дело в том, что, если ввести себе спинномозговую жидкость мертвого человека, то можно видеть произошедшее перед смертью его глазами. Несколько инъекций, и Дэвид раскрывает жуткое преступление. Однако, жизнь самого Дэвида теперь висит на волоске - выберется он из этого эксперимента или погибнет, как погибает каждое восьмое подопытное животное?

Страна: США
Студия: Dino De Laurentiis Company, Metro-Goldwyn-Mayer (MGM), Spelling Films
Продолжительность: 01:56:47
Перевод: Профессиональный (многоголосый закадровый), Авторский (одноголосый закадровый) - Пётр Карцев
Файл
Кодек: XviD
Качество: HDRip
Видео: 704x384, 23,976 fps, XviD build 73 ~ 2015 kbps
Аудио 1: 48 kHz, AC3 Dolby Digital, 3/2 (L,C,R,l,r) + LFE ch, ~384 kbps - mvo
Аудио 2: 48 kHz, AC3 Dolby Digital, 2/0 (L,R) ch, ~256 kbps - Карцев

MI

Общее
Полное имя : Nezabivaemoe.1996.HDRip.avi
Формат : AVI
Формат/Информация : Audio Video Interleave
Профиль формата : OpenDML
Размер файла : 2,18 Гбайт
Продолжительность : 1 ч. 56 м.
Общий поток : 2672 Кбит/сек
Программа кодирования : VirtualDubMod 1.5.10.2 (build 2542/release)
Библиотека кодирования : VirtualDubMod build 2542/release
Видео
Идентификатор : 0
Формат : MPEG-4 Visual
Профиль формата : Advanced Simple@L5
Параметр BVOP формата : 1
Параметр QPel формата : Нет
Параметр GMC формата : Без точки перехода
Параметр матрицы формата : Выборочная
Идентификатор кодека : XVID
Идентификатор кодека/Подсказка : XviD
Продолжительность : 1 ч. 56 м.
Битрейт : 2015 Кбит/сек
Ширина : 704 пикс.
Высота : 384 пикс.
Соотношение сторон : 16:9
Частота кадров : 23,976 кадр/сек
Цветовое пространство : YUV
Подвыборка цветности : 4:2:0
Битовая глубина : 8 бит
Тип развёртки : Прогрессивная
Метод сжатия : С потерями
Бит/(Пиксели*Кадры) : 0.311
Размер потока : 1,64 Гбайт (75%)
Библиотека кодирования : XviD 73
Аудио #1
Идентификатор : 1
Формат : AC-3
Формат/Информация : Audio Coding 3
Расширение режима : CM (complete main)
Идентификатор кодека : 2000
Продолжительность : 1 ч. 56 м.
Вид битрейта : Постоянный
Битрейт : 384 Кбит/сек
Канал(ы) : 6 канала(ов)
Расположение каналов : Front: L C R, Side: L R, LFE
Частота : 48,0 КГц
Битовая глубина : 16 бит
Метод сжатия : С потерями
Размер потока : 321 Мбайт (14%)
Выравнивание : Разделение по промежуткам
Продолжительность промежутка : 42 мс. (1,00 видеокадр)
Время предзагрузки промежутка : 500 ms
Аудио #2
Идентификатор : 2
Формат : AC-3
Формат/Информация : Audio Coding 3
Расширение режима : CM (complete main)
Идентификатор кодека : 2000
Продолжительность : 1 ч. 56 м.
Вид битрейта : Постоянный
Битрейт : 256 Кбит/сек
Канал(ы) : 2 канала(ов)
Расположение каналов : Front: L R
Частота : 48,0 КГц
Битовая глубина : 16 бит
Метод сжатия : С потерями
Размер потока : 213 Мбайт (10%)
Выравнивание : Разделение по промежуткам
Продолжительность промежутка : 42 мс. (1,00 видеокадр)
Время предзагрузки промежутка : 500 ms

Скриншоты

Релиз от: Leon-masl
[Профиль] [ЛС]
Показать сообщения:    

Текущее время: Сегодня 16:53

Часовой пояс: GMT



Вы не можете начинать темы
Вы не можете отвечать на сообщения
Вы не можете редактировать свои сообщения
Вы не можете удалять свои сообщения
Вы не можете голосовать в опросах
Вы не можете прикреплять файлы к сообщениям
Вы не можете скачивать файлы